Files
2023-01-17 00:45:18 -05:00

350 lines
12 KiB
Plaintext

//TJADB Project
TITLE:Onara Hazukashikunai yo
TITLEJA:Onaraはずかしくないよ
SUBTITLE:--Onna Lovely/PIRAMEKINO
SUBTITLEJA:テレビ東京「ピラメキーノ」より
BPM:173
WAVE:Onara Hazukashikunai yo.ogg
OFFSET:-9.311
DEMOSTART:75.886
COURSE:Oni
LEVEL:7
BALLOON:99
SCOREINIT:600
SCOREDIFF:140
#START
9,
,
,
,
,
,
,
0008,
100000000000200000000000000000000000200000000000,
100000000000200000000000000000000000200000000000,
100000000000200000000000100000100000200000000000,
100100100000200000000000100100100100200000000000,
100000200000100000200000100100200000100100200000,
100000200000100000200000100100200000100100200000,
100100100100100100100100100100100100100100100000,
300000000000000000000000000000000000000000000000,
#GOGOSTART
100000200000100000200000100000200200100000200000,
100000100000200000100000000000300000400000000000,
100000200000100000200000100000200200200000200000,
100000200000200000100000000000400000400000000000,
100000000000200000200000100000100000200000000000,
100000200000200000100000100000200000200000000000,
100100100000200200200000100100100000200200200000,
300000000000300000000000300000000100100000100000,
100000200000100000200000100000200200100000200000,
100000100000200000100000000000300000400000000000,
100000200000100000200000100000200200200000200000,
100000200000200000100000000000400000400000000000,
200200200000200200200000200200200000200200200000,
100100100100200000000000100100100100200000000000,
400000000000400000000000000000000000000000000000,
#GOGOEND
100200000000100200000000100200000000100200000000,
100000000000100000000000100000100100200000100000,
000000200200200000200000200000200200200000200000,
100000000000100000000000100000100100200000100000,
000000200200200000200000200000200200200000200000,
100000200000100000200000100000100100100000100000,
200200200000200000200000200200200200200000200000,
100000200000100000200000100000100100100000100000,
200200200000200000200000200200200200200000200000,
100000200200100000200000100000200200100000200000,
100000100000200000200000100000200000200000000000,
100000200000100200200000100000200000100200200000,
100000200200100000200200100000200000200000000000,
100000200200100000200000100000200200100000200000,
100000100000200000200000100000200000200000000000,
100000200200200000100000000000200000200000300000,
000000300000000000300000300000000000300000000000,
#GOGOSTART
100000200000100000200000100000200200100000200000,
100000100000200000100000000000300000400000000000,
100000200000100000200000100000200200200000200000,
100000200000200000100000000000400000400000000000,
100000000000200000200000100000100000200000000000,
100000200000200000100000100000200000200000000000,
100100100000200200200000100100100000200200200000,
300000000000300000000000300000000100100000100000,
100000200000100000200000100000200200100000200000,
100000100000200000100000000000300000400000000000,
100000200000100000200000100000200200200000200000,
100000200000200000100000000000400000400000000000,
200200200000200200200000200200200000200200200000,
100100100100200000000000100100100100200000000000,
400000000000400000000000000000000000000000000000,
100200000000100200000000100200000000100200000000,
#GOGOEND
#END
COURSE:Hard
LEVEL:5
BALLOON:50,8
SCOREINIT:810
SCOREDIFF:200
#START
900000000000000000000000000000000000000000000000,
000000000000000000000000000000000000000000000000,
000000000000000000000000000000000000000000000000,
000000000000000000000000000000000000000000000000,
000000000000000000000000000000000000000000000000,
000000000000000000000000000000000000000000000000,
000000000000000000000000000000000000000000000000,
0008,
100000000000200000000000000000000000200000000000,
100000000000200000000000000000000000200000000000,
100000000000200000000000100000100000200000000000,
100000000000200000000000000000000000200000000000,
100000200000100000200000100000200000100000200000,
100000200000100000200000100000200000100000000000,
9,
0008,
#GOGOSTART
100000000000100000000000100000100000100000000000,
300000000000300000000000000000000000200000000000,
100000000000100000000000100000200000100000000000,
300000000000300000000000000000000000200000000000,
100000000000100000000000100000100000100000000000,
200000000000200000000000200000200000200000000000,
300000000000400000000000300000000000400000000000,
300000000000300000000000300000000000400000000000,
100000000000100000000000100000100000100000000000,
300000000000300000000000000000000000200000000000,
100000000000100000000000100000200000100000000000,
300000000000300000000000000000000000000000000000,
400000000000400000000000400000000000400000000000,
300000000000000000000000300000000000000000000000,
600000000000000000000000000000800000000000000000,
#GOGOEND
000000000000000000000000000000000000000000000000,
100000000000100000000000100000100000100000000000,
000000200000200000000000200000200000000000200000,
100000000000100000000000100000100000100000000000,
000000200000200000000000200000200000000000200000,
100000000000100000000000100000100000100000000000,
200000000000200000000000200000200000200000000000,
100000000000100000000000100000100000100000000000,
200000000000200000000000200000200000200000000000,
100000000000200000000000100000100000200000000000,
100000000000200000200000100000000000000000000000,
100000000000100000000000100000100000200000000000,
100000200000200000100000100000000000000000000000,
100000000000200000000000100000100000200000000000,
100000000000200000200000100000000000000000000000,
100000000000100000100000000000200000200000300000,
000000300000000000300000300000000000000000000000,
#GOGOSTART
100000000000100000000000100000100000100000000000,
300000000000300000000000000000000000200000000000,
100000000000100000000000100000200000100000000000,
300000000000300000000000000000000000200000000000,
100000000000100000000000100000100000100000000000,
200000000000200000000000200000200000200000000000,
300000000000400000000000300000000000400000000000,
300000000000300000000000300000000000400000000000,
100000000000100000000000100000100000100000000000,
300000000000300000000000000000000000200000000000,
100000000000100000000000100000200000100000000000,
300000000000300000000000000000000000000000000000,
400000000000400000000000400000000000400000000000,
300000000000000000000000300000000000000000000000,
600000000000000000000000000000800000000000000000,
300000000000300000000000300000000000300000000000,
#END
COURSE:Normal
LEVEL:4
BALLOON:40,6,6,4,15
SCOREINIT:1060
SCOREDIFF:350
#START
#SCROLL 0.8
900000000000000000000000000000000000000000000000,
000000000000000000000000000000000000000000000000,
000000000000000000000000000000000000000000000000,
000000000000000000000000000000000000000000000000,
000000000000000000000000000000000000000000000000,
000000000000000000000000000000000000000000000000,
,
8,
100000000000100000000000000000000000000000000000,
100000000000100000000000000000000000000000000000,
100000000000000000000000100000000000000000000000,
100000000000000000000000000000000000000000000000,
100000000000100000000000100000000000100000000000,
100000000000100000000000100000000000000000000000,
9,
8,
#GOGOSTART
100000000000000000000000100000000000000000000000,
300000000000300000000000000000000000000000000000,
100000000000000000000000100000000000000000000000,
300000000000300000000000000000000000000000000000,
100000000000100000000000100000000000000000000000,
200000000000200000000000200000000000000000000000,
300000000000000000000000300000000000000000000000,
300000000000300000000000300000000000000000000000,
100000000000000000000000100000000000000000000000,
300000000000300000000000000000000000000000000000,
100000000000000000000000100000000000000000000000,
300000000000300000000000000000000000000000000000,
300000000000300000000000300000000000300000000000,
300000000000000000000000300000000000000000000000,
9,
#GOGOEND
8,
100000000000000000000000100000000000000000000000,
000000000000100000000000100000000000000000000000,
100000000000000000000000100000000000000000000000,
000000000000200000000000200000000000000000000000,
100000000000000000000000100000000000000000000000,
200000000000000000000000200000000000000000000000,
100000000000000000000000100000000000000000000000,
200000000000000000000000200000000000000000000000,
500000000000000000000000000000000000000000000000,
000000800000000000000000000000000000000000000000,
100000000000000000000000100000000000000000000000,
100000000000100000000000100000000000000000000000,
500000000000000000000000000000000000000000000000,
000000800000000000000000000000000000000000000000,
100000000000100000000000100000000000000000700000,
000000000000000000000000000000800000000000000000,
#GOGOSTART
100000000000100000000000100000000000000000000000,
300000000000300000000000000000000000000000000000,
100000000000100000000000100000000000000000000000,
300000000000300000000000000000000000000000000000,
100000000000100000000000100000000000000000000000,
200000000000200000000000200000000000000000000000,
300000000000000000000000300000000000000000000000,
300000000000300000000000300000000000000000000000,
100000000000100000000000100000000000000000000000,
300000000000300000000000000000000000000000000000,
100000000000100000000000100000000000000000000000,
300000000000300000000000000000000000000000000000,
300000000000300000000000300000000000300000000000,
300000000000000000000000300000000000000000000000,
900000000000000000000000000000000000000000000000,
000000000000000000000000000000000000000000000008,
#END
COURSE:Easy
LEVEL:2
BALLOON:30,3,3,8
SCOREINIT:1070
SCOREDIFF:530
#START
#SCROLL 0.8
900000000000000000000000000000000000000000000000,
000000000000000000000000000000000000000000000000,
000000000000000000000000000000000000000000000000,
000000000000000000000000000000000000000000000000,
000000000000000000000000000000000000000000000000,
000000000000000000000000000000000000000000000000,
,
8,
100000000000000000000000000000000000000000000000,
100000000000000000000000000000000000000000000000,
100000000000000000000000100000000000000000000000,
100000000000000000000000000000000000000000000000,
100000000000000000000000100000000000000000000000,
100000000000000000000000100000000000000000000000,
9,
8,
#GOGOSTART
100000000000000000000000100000000000000000000000,
300000000000000000000000000000000000000000000000,
100000000000000000000000100000000000000000000000,
300000000000000000000000000000000000000000000000,
100000000000000000000000000000000000000000000000,
100000000000000000000000100000000000000000000000,
300000000000000000000000300000000000000000000000,
300000000000000000000000000000000000000000000000,
100000000000000000000000100000000000000000000000,
300000000000000000000000000000000000000000000000,
100000000000000000000000100000000000000000000000,
300000000000000000000000000000000000000000000000,
300000000000000000000000300000000000000000000000,
300000000000000000000000300000000000000000000000,
9,
#GOGOEND
8,
100000000000000000000000100000000000000000000000,
000000000000000000000000000000000000000000000000,
200000000000000000000000200000000000000000000000,
000000000000000000000000000000000000000000000000,
100000000000000000000000100000000000000000000000,
000000000000000000000000000000000000000000000000,
200000000000000000000000200000000000000000000000,
000000000000000000000000000000000000000000000000,
500000000000000000000000000000000000000000000000,
000000800000000000000000000000000000000000000000,
100000000000000000000000100000000000000000000000,
100000000000000000000000000000000000000000000000,
500000000000000000000000000000000000000000000000,
000000800000000000000000000000000000000000000000,
600000000000000000000000000000000000000000000000,
000000800000000000000000000000000000000000000000,
#GOGOSTART
100000000000000000000000100000000000000000000000,
300000000000000000000000000000000000000000000000,
100000000000000000000000100000000000000000000000,
300000000000000000000000000000000000000000000000,
100000000000000000000000000000000000000000000000,
100000000000000000000000100000000000000000000000,
300000000000000000000000300000000000000000000000,
300000000000000000000000000000000000000000000000,
100000000000000000000000100000000000000000000000,
300000000000000000000000000000000000000000000000,
100000000000000000000000100000000000000000000000,
300000000000000000000000000000000000000000000000,
300000000000000000000000300000000000000000000000,
300000000000000000000000300000000000000000000000,
9,
000000000000000000000000000000000000000000000008,
#END