Files
ESE-ja-fix/01 Pop/One Night Carnival/One Night Carnival -Old Audio-.tja
2023-06-15 19:15:39 -05:00

346 lines
4.2 KiB
Plaintext

//TJADB Project
TITLE:One Night Carnival -Old Audio-
TITLEJA:One Night Carnival -Old Audio-
SUBTITLE:--Kishidan
BPM:135
WAVE:One Night Carnival -Old Audio-.ogg
OFFSET:-3.942
DEMOSTART:18.164
COURSE:Oni
LEVEL:8
SCOREINIT:530
SCOREDIFF:140
#START
1001,
10000011,
1001,
10000011,
10101011,
10101011,
1010101010101111,
1004,
1020102210201000,
1011201010304000,
1020102210201000,
1011201010304040,
1020102210201000,
1011201010304000,
1020102210201000,
1011201120201110,
4011202012012011,
1010210210222020,
1011202012012030,
33334040,
0010010010002000,
0010010010002000,
0010010010002000,
0010010030003000,
1020102210201000,
1011201010304000,
1020102210201000,
111111111111100300400000,
1020102210201000,
1011201010304040,
1020102210001020,
1022101120201110,
4011202012012011,
1010210210222020,
1011202012012030,
33334040,
0010010010002000,
0010010010002000,
0010010010002000,
0010010040004000,
1120201011011000,
1120110110403040,
1120201011011000,
1120202210403040,
1120201011011000,
1122112210403040,
1120201022022010,
1122112211221120,
3022122212221222,
#GOGOSTART
1011201111102000,
1011201111102000,
1011202210112022,
1010202210102000,
1010221110112010,
1010221110112010,
000000100000500000000000000000000000000008000000,
433333,
3011201111102000,
1011201111102000,
1011202210112022,
1010202210102000,
1010221110112011,
1010221110300300,
1010221110112011,
1010221110300300,
1010221120112020,
1011200030003000,
30330440,
#GOGOEND
#END
COURSE:Hard
LEVEL:6
BALLOON:20
SCOREINIT:550
SCOREDIFF:140
#START
1001,
10000011,
1001,
10000011,
10101011,
10101011,
11111111,
3,
11201120,
11211440,
11201120,
11211444,
11201120,
11211440,
11201120,
11211121,
01201120,
1010220200000000,
0010200011010030,
33334040,
0020020020002000,
0020020020002000,
0020020020002000,
0020020030003000,
11201120,
11211440,
11201120,
500000000000000000000008000000400000400000000000,
11201120,
11211444,
11201012,
12121210,
01201120,
1010220200000000,
0010201011010030,
33334040,
0020020020002000,
0020020020002000,
0020020020002000,
0020020040004000,
11221000,
11201212,
11221000,
1010201110201020,
11221000,
1020101110201020,
11221001,
500000000000000000000000000000000008000000000000,
3,//49
#GOGOSTART
1000101110101000,
1000101110202000,
1000101110101000,
1000101110202000,
1000201110102000,
1000201110105000,
000000000000000000000000000000000000000000000008,
033333,
3000101110101000,
1000101110202000,
1000101110101000,
1000101110202000,
1000201110102000,
1000201110300300,
1000201110202000,
1000201110300300,
1000202220202000,
1033,
7,
08,//69
#GOGOEND
,
#END
COURSE:Normal
LEVEL:5
BALLOON:6,16
SCOREINIT:690
SCOREDIFF:180
#START
1,
1001,
1,
1001,
11,
11,
1111,
3,
1111,
10111040,
1111,
10111040,
1111,
10111040,
1111,
10111000,
01101000,
1120,
01101000,
1122,
0020020020000000,
0020020020000000,
0020020020000000,
0020020030003000,
1111,
10111040,
1111,
500000000000000000000008000000000000400000000000,
1111,
10111040,
1111,
10111110,
01101000,
1120,
01101000,
1122,
0020020020000000,
0020020020000000,
0020020020000000,
0020020040004000,
10101110,
11101000,
10101110,
11011000,
10101110,
78,
10101101,
500000000000000000000000000000000008000000000000,
3,//49
#GOGOSTART
10110110,
10110110,
10110220,
10110220,
10222020,
10111050,
000000000000000000000000000000000008000000000000,
3,
10110110,
10110110,
10110220,
10110220,
10222020,
10111000,
10222020,
10111000,
10220220,
1033,
7,
08,//69
#GOGOEND
,
#END
COURSE:Easy
LEVEL:3
BALLOON:4,11
SCOREINIT:600
SCOREDIFF:170
#START
1,
1,
1,
1,
11,
11,
1111,
3,
1111,
11,
1111,
11,
1111,
11,
1111,
500000000000000000000008000000000000000000000000,
11,
1110,
11,
1122,
01,
01,
01,
0022,
1111,
11,
1111,
11,
1111,
11,
1111,
500000000000000000000000000008000000000000000000,
11,
1110,
11,
1122,
02,
02,
02,
0022,
1110,
2220,
1110,
22,
1110,
2220,
1110,
3,
78,//49
#GOGOSTART
1111,
11,
1111,
11,
2220,
2220,
500000000000000000000008000000000000000000000000,
3,
1111,
11,
1111,
11,
2220,
4400,
1110,
3300,
2220,
2033,
7,
08,//69
#GOGOEND
,
#END