Files
2023-06-15 19:15:39 -05:00

349 lines
8.3 KiB
Plaintext

//TJADB Project
TITLE:PEACH
TITLEJA:PEACH
SUBTITLE:--Ai Otsuka
BPM:147
WAVE:PEACH.ogg
OFFSET:-1.894
DEMOSTART:44.688
COURSE:Oni
LEVEL:6
SCOREINIT:760
SCOREDIFF:180
#START
100000000000200000100000100000200000200000100100,
100000100100100000200000100000200000200000000000,
100000000000200000100000100000200000200000100100,
100000000000200000000000100000200000200000000000,
100000000000200000100000100000200000200000100100,
100000100100100000200000100000200000200000000000,
100000000000200000000000100000200000200000500000,
000000000000000000000008000000000000000000000000,
100000100000200000100100100000100000200000000000,
100000100000200000100100100000100000200000000000,
100000100000200000100100100000100000200000100000,
100000200000000000200000100000200000200000000000,
100000100000200000100100100000100000200000000000,
100000100000200000100100100000100000200000000000,
100000100000200000100100100000100000200000100000,
100000200000000000200000100000200000200000000000,
100000000000200000200000000000100000200000100100,
100000100000200000200000000000100000200000000000,
100000000000200000200000000000100000200000100100,
100000000000200000200000000000100000200000100100,
100000000000200000200000000000100000200000000000,
100000100000200000200000000000100000200000100100,
100000000000100000000000100000000000100000000000,
100000000000100000000000100000000000100000000000,
100000100000100000100000100000100000100000100000,
100000000000000000000000000000000000000000000000,
#GOGOSTART
000000000000300000000000300000200000200000100100,
100000100100100000100000200000100000200000100000,
100000100100100000100100100000200000200000100000,
100000100100100000100100100000200000200000100100,
100000000000200000100100100000100000200000100000,
100000000000200000100100100000100000200000100000,
100000100100100000100100100000200000200000100100,
100000100100100000100100100000100000200000100000,
000000000000300000000000300000200000200000100100,
100000100100100000100000200000100000200000100000,
100000100100100000100100100000200000200000100000,
100000100100100000100100100000200000200000100100,
100000000000200000100100100000100000200000100000,
100000000000200000100100100000100000200000100000,
100000100100100000100100100000200000200000100000,
000000300000300000000000300000300000300000300000,
#GOGOEND
#END
COURSE:Hard
LEVEL:4
SCOREINIT:870
SCOREDIFF:240
#START
10211020,
10201110,
10211020,
10201220,
10211020,
10201110,
10201115,
000000000000000008000000000000000000000000000000,
#SECTION
#BRANCHSTART p,75,90
#N
11001010,
11001010,
11001100,
10110220,
11001010,
11001010,
11001100,
100000000000100000000000500000000000000008000000,
#E
11001010,
11001110,
11001101,
10110220,
11001010,
11002220,
11001101,
100000000000100000100000500000000000000008000000,
#M
11001010,
11001110,
11001101,
10110220,
11001010,
11002220,
11001101,
100000000000100000100000500000000000000008000000,
#SECTION
#BRANCHSTART p,75,90
#N
12020,
10200120,
1202,
1202,
1202,
10200120,
1111,
1111,
11101100,
1,
#E
10210020,
10210120,
10210020,
10210020,
10210020,
10210120,
1112,
1112,
11101110,
1,
#M
10210220,
10210121,
10210220,
10210220,
10210220,
10210121,
1112,
1112,
11111111,
1,
#GOGOSTART
#SECTION
#BRANCHSTART p,75,90
#N
00303001,
01101010,
1202,
1202,
1202,
1111,
10210000,
1111,
#E
00303001,
01101010,
1212,
1212,
1212,
1111,
10210120,
10111011,
#M
00303001,
11101010,
10201220,
1212,
10201220,
1111,
10210120,
1000101110101010,
#SECTION
#BRANCHSTART p,75,90
#N
00303001,
01101010,
1202,
1202,
1202,
1111,
10210000,
03303033,
#E
00303001,
01101010,
1212,
1212,
1212,
1111,
10210121,
03303033,
#M
00303001,
11101010,
10201220,
1212,
10201220,
1111,
10210121,
03303033,
#BRANCHEND
#GOGOEND
#END
COURSE:Normal
LEVEL:3
BALLOON:8
SCOREINIT:1020
SCOREDIFF:350
#START
100000000000000000100000100000000000000000000000,
100000000000100000000000100000000000000000000000,
100000000000000000100000100000000000000000000000,
100000000000100000000000100000000000000000000000,
100000000000000000100000100000000000000000000000,
100000000000100000000000100000000000000000000000,
100000000000000000000000100000000000000000500000,
000000000000000000000080000000000000000000000000,
100000000000000000000000100000000000200000000000,
100000000000000000000000100000100000000000000000,
100000000000000000000000100000000000200000000000,
100000000000100000000000100000000000000000000000,
100000000000000000000000100000000000200000000000,
100000000000000000000000100000100000000000000000,
100000000000000000000000100000000000200000000000,
100000000000100000000000100000000000000000000000,
100000000000100000100000000000000000000000000000,
100000000000100000100000000000000000000000000000,
100000000000100000100000000000000000000000000000,
100000000000200000000000000000000000200000000000,
100000000000100000100000000000000000000000000000,
100000000000100000100000000000000000000000000000,
100000000000100000000000100000000000000000000000,
100000000000100000000000100000000000100000000000,
900000000000000000000000000000000000000000000000,
800000000000000000000000000000000000000000000000,
#GOGOSTART
000000000000300000000000000000000000000000000000,
100000000000100000000000100000000000200000000000,
100000000000000000200000200000000000000000000000,
100000000000100000000000100000000000200000000000,
100000000000000000200000200000000000000000000000,
100000000000000000000000100000000000100000000000,
100000000000000000000000100000000000100000000000,
100000000000000000000000100000000000000000000000,
000000000000300000000000000000000000000000000000,
100000000000100000000000100000000000200000000000,
100000000000000000200000200000000000000000000000,
100000000000100000000000100000000000200000000000,
100000000000000000200000200000000000000000000000,
100000000000000000000000100000000000100000000000,
100000000000000000000000100000000000100000000000,
000000300000300000000000300000000000300000000000,
#GOGOEND
#END
COURSE:Easy
LEVEL:3
BALLOON:6
SCOREINIT:990
SCOREDIFF:470
#START
100000000000000000000000100000000000000000000000,
100000000000000000000000100000000000100000000000,
100000000000000000000000100000000000000000000000,
100000000000000000000000100000000000100000000000,
100000000000000000000000100000000000000000000000,
100000000000000000000000100000000000100000000000,
100000000000000000000000100000000000000000500000,
000000000000000000000080000000000000000000000000,
100000000000000000000000100000000000000000000000,
100000000000000000000000200000000000000000000000,
100000000000000000000000000000000000000000000000,
100000000000100000000000100000000000000000000000,
100000000000000000000000100000000000000000000000,
100000000000000000000000200000000000000000000000,
100000000000000000000000000000000000000000000000,
100000000000100000000000100000000000000000000000,
100000000000000000000000200000000000000000000000,
100000000000000000000000000000000000000000000000,
100000000000000000000000200000000000000000000000,
100000000000000000000000000000000000000000000000,
100000000000000000000000200000000000000000000000,
100000000000000000000000000000000000000000000000,
100000000000100000000000100000000000000000000000,
100000000000100000000000100000000000000000000000,
900000000000000000000000000000000000000000000000,
800000000000000000000000000000000000000000000000,
#GOGOSTART
000000000000300000000000000000000000000000000000,
100000000000100000000000100000000000000000000000,
100000000000000000000000200000000000000000000000,
100000000000000000000000200000000000000000000000,
100000000000000000000000200000000000000000000000,
100000000000000000000000100000000000000000000000,
100000000000100000000000100000000000000000000000,
100000000000100000000000100000000000000000000000,
000000000000300000000000000000000000000000000000,
100000000000100000000000100000000000000000000000,
100000000000000000000000200000000000000000000000,
100000000000000000000000200000000000000000000000,
100000000000000000000000200000000000000000000000,
100000000000100000000000100000000000000000000000,
100000000000000000000000100000000000000000000000,
600000000000000000000000000000000000000000080000,
#GOGOEND
#END