forked from ESE/ESE
283 lines
11 KiB
Plaintext
283 lines
11 KiB
Plaintext
//TJADB Project
|
||
TITLE:Plumeria ~Hana Uta~
|
||
TITLEJA:TITLE:プルメリア~花唄~
|
||
SUBTITLE:--Aqua Timez/Gokusen THE MOVIE
|
||
BPM:114
|
||
WAVE:Plumeria ~Hana Uta~.ogg
|
||
OFFSET:-2.387
|
||
DEMOSTART:80.248
|
||
|
||
COURSE:Oni
|
||
LEVEL:7
|
||
BALLOON:36
|
||
SCOREINIT:740
|
||
SCOREDIFF:160
|
||
|
||
|
||
#START
|
||
|
||
|
||
100000200200000200200000000000000000000000200200,
|
||
100000200200000000200000100000000000200000000000,
|
||
100000200200000000200000100000200200000000000200,
|
||
100000200000200000200000100000000000200000000000,
|
||
100000200200000000200000100000000000200000200000,
|
||
100000200200000000200000100000000000200000200000,
|
||
100000000000000000200000100000200000200000200000,
|
||
100000000000200000000000100000000000200000000000,
|
||
300000000000000000700000000000000000000000000000,
|
||
000000000000000000000000000000000000800000000000,
|
||
300000300000200200200200100000100000200200200200,
|
||
100000200100000200100000000000200000100200000000,
|
||
300000300000200200200200100000100000200200200200,
|
||
100000200100000200100100000100200000200200000000,
|
||
300000300000200200200200100000100000200200200200,
|
||
100000200100000200100000000000200000100200000000,
|
||
300000300000200200200200100000000100000000500000,
|
||
000000000000000000000000000000000008000000000000,
|
||
100000100000200000000100000000100000200000000000,
|
||
100000100000200000000200000000100000200000100100,
|
||
100000100000200000000100000000100000200000000000,
|
||
100000100000200000000200000000100000200000100100,
|
||
100000100000200000000100000200100000200000000000,
|
||
100000100000200000000200000200100000200000100100,
|
||
100000100000200000000100000200100000200000000000,
|
||
100000100000200000000200000200100000200000000000,
|
||
100000100000200000100200000200100000200100000100,
|
||
100000100000200000100200000200100000200100000100,
|
||
100000100000200000000000100000100000200000000000,
|
||
100000100000200000100200000200100000200100100000,
|
||
100000100000200000100200000200100000200100000100,
|
||
100000100000200000100200000200100000200100000000,
|
||
300000300000200200200200100000100000200200200200,
|
||
100000100000200100000200100100100000200200200000,
|
||
300000300000200200200200100000100000200200200200,
|
||
100000100000200100000100100000200200200200200000,
|
||
300000200000300000200000300000200000300000000000,
|
||
|
||
#GOGOSTART
|
||
300000200100000100200000100000200200100000200200,
|
||
100000100200000200100000100000200200100000200200,
|
||
100000200100000100200000100000200100000100200000,
|
||
100000200200100000200000100000200200100000000000,
|
||
100000200100000100200000100000200000100100200000,
|
||
100000200100000100200000100000200000100100200000,
|
||
100000200100000100200000100100200000100000200000,
|
||
100000200200100000200200100000200200100100200200,
|
||
100000500000000000000000000000000000000000000000,
|
||
000000000000000000000000000000000008000000000000,
|
||
|
||
#GOGOEND
|
||
300000300000200200200200100000100000200200200200,
|
||
100000200100000200100000000000200000100200000000,
|
||
300000300000200200200200100000100000200200200200,
|
||
100200000100200000100200000100200000000000000000,
|
||
|
||
|
||
#END
|
||
|
||
|
||
COURSE:Hard
|
||
LEVEL:6
|
||
BALLOON:28
|
||
SCOREINIT:740
|
||
SCOREDIFF:180
|
||
|
||
|
||
#START
|
||
|
||
|
||
100000000000000000200000100000000000000000200000,
|
||
100000000000000000200000100000000000200000000000,
|
||
100000000000000000200000100000000000000000000000,
|
||
100000200000200000000000100000000000200000000000,
|
||
100000000000000000200000100000000000200000200000,
|
||
100000000000000000200000100000000000200000200000,
|
||
100000000000000000100000100000200000200000000000,
|
||
100000000000200000000000100000000000200000000000,
|
||
300000000000000000700000000000000000000000000000,
|
||
000000000000000000000000000000000000000000800000,
|
||
300000300000200200200000300000300000200200200000,
|
||
100000000000200000000000100000100000200000000000,
|
||
300000300000200200200000300000300000200200200000,
|
||
100000000000200000100000000000200000100100100000,
|
||
300000300000200200200000300000300000200200200000,
|
||
100000000000200000000000100000100000200000000000,
|
||
300000300000200200200000300000000300000000600000,
|
||
000000000000000000000000000000000800000000000000,
|
||
100000000000200000000000000000100000200000000000,
|
||
100000000000200000000000000000100000200000000000,
|
||
100000000000200000000000000000100000200000000000,
|
||
100000000000200000000000100000100000200000000000,
|
||
100000100000200000000000000000100000200000000000,
|
||
100000100000200000000000000000100000200000000000,
|
||
100000100000200000000000000000100000200000000000,
|
||
100000100000200000000000100000100000200000000000,
|
||
100000100000200000000200000000100000000000000000,
|
||
100000100000200000000200000000100000000000000000,
|
||
100000100000200000000000100000100000200000000000,
|
||
100000100000200000000200000000100000100100100000,
|
||
100000100000200000000200000000100000200000000000,
|
||
100000100000200000000200000000100000200000000000,
|
||
300000300000200200200000300000300000200200200000,
|
||
100000000000200000000000100000100000200000200000,
|
||
300000300000200200200000300000300000200200200000,
|
||
100000000000200000000000100000100000100100100000,
|
||
300000000000300000000000300000000000000000000000,
|
||
#GOGOSTART
|
||
100000100100000100100000100000100000200000000000,
|
||
100000100100000100100000100000100000200000000000,
|
||
100000100000200000000000100100100000200000000000,
|
||
100000100000100000200000100000200200200000000000,
|
||
100000100100000100100000100000100000200000000000,
|
||
100000100100000100100000100000100000200000000000,
|
||
100000100000200000000000100000100000200000000000,
|
||
100000200000100100100000100000200000100100100000,
|
||
100000500000000000000000000000000000000000000000,
|
||
000000000000000000000000000000000800000000000000,
|
||
#GOGOEND
|
||
300000300000200200200000300000300000200200200000,
|
||
100000000000200000000000100000100000200000000000,
|
||
300000300000200200200000300000300000200200200000,
|
||
100100000100100000100100000100100000000000000000,
|
||
|
||
|
||
#END
|
||
|
||
|
||
COURSE:Normal
|
||
LEVEL:4
|
||
BALLOON:15,5
|
||
SCOREINIT:840
|
||
SCOREDIFF:220
|
||
|
||
|
||
#START
|
||
|
||
|
||
100000000000000000000000200000000000000000000000,
|
||
100000000000000000000000200000000000200000000000,
|
||
100000000000000000000000100000000000000000000000,
|
||
100000000000100000000000200000000000000000000000,
|
||
100000000000000000000000200000000000200000000000,
|
||
100000000000000000000000200000000000200000000000,
|
||
100000000000000000000000200000000000000000000000,
|
||
100000000000000000000000100000000000100000000000,
|
||
300000000000000000700000000000000000000000000000,
|
||
000000000000000000000000000000800000000000000000,
|
||
300000300000000000000000300000300000000000000000,
|
||
100000000000100000100000100000000000000000000000,
|
||
300000300000000000000000300000300000000000000000,
|
||
100000000000100000100000100000000000000000000000,
|
||
300000300000000000000000300000300000000000000000,
|
||
100000000000100000100000100000000000000000000000,
|
||
300000300000000000000000300000000000000000600000,
|
||
000000000000000000000000000000800000000000000000,
|
||
100000000000100000000000200000000000000000000000,
|
||
100000000000100000000000200000000000200000000000,
|
||
100000000000000000000000200000000000000000000000,
|
||
100000000000100000000000200000000000100000000000,
|
||
100000000000100000000000200000000000000000000000,
|
||
100000000000100000000000200000000000200000000000,
|
||
100000000000000000000000200000000000000000000000,
|
||
100000000000100000000000200000000000100000000000,
|
||
100000000000200000000000000000100000100000000000,
|
||
100000000000200000000000000000100000100000000000,
|
||
100000000000200000000000100000000000200000000000,
|
||
100000000000200000000000000000100000100000000000,
|
||
100000000000200000000000000000100000100000000000,
|
||
100000000000200000000000000000100000100000000000,
|
||
300000300000000000000000300000300000000000000000,
|
||
100000000000100000100000100000000000000000000000,
|
||
300000300000000000000000300000300000000000000000,
|
||
100000000000200000000000100000100000100000000000,
|
||
300000000000300000000000300000000000000000000000,
|
||
#GOGOSTART
|
||
100000100000100000000000100000000000000000000000,
|
||
100000100000100000000000100000000000200000000000,
|
||
100000000000100000000000100000100000100000000000,
|
||
100000000000100000000000200000000000100000000000,
|
||
100000100000100000000000100000000000000000000000,
|
||
100000100000100000000000100000000000200000000000,
|
||
100000000000000000000000100000100000100000000000,
|
||
300000000000300000000000300000000000300000300000,
|
||
000000600000000000000000000000000000000000000000,
|
||
000000000000000000000000000000800000000000000000,
|
||
#GOGOEND
|
||
300000300000000000000000300000300000000000000000,
|
||
100000000000100000100000100000000000000000000000,
|
||
300000300000000000000000300000300000000000000000,
|
||
700000000000000000000000000000800000000000000000,
|
||
|
||
|
||
#END
|
||
|
||
|
||
COURSE:Easy
|
||
LEVEL:3
|
||
BALLOON:5
|
||
SCOREINIT:870
|
||
SCOREDIFF:290
|
||
|
||
|
||
#START
|
||
|
||
|
||
100000000000000000000000000000000000000000000000,
|
||
100000000000000000000000100000000000000000000000,
|
||
100000000000000000000000000000000000000000000000,
|
||
100000000000000000000000100000000000000000000000,
|
||
100000000000000000000000000000000000000000000000,
|
||
100000000000000000000000000000000000000000000000,
|
||
100000000000000000000000100000000000000000000000,
|
||
100000000000000000000000100000000000000000000000,
|
||
100000000000000000000000500000000000000000000000,
|
||
000000000000800000000000000000000000000000000000,
|
||
300000000000000000000000300000000000000000000000,
|
||
100000000000100000000000100000000000000000000000,
|
||
300000000000000000000000300000000000000000000000,
|
||
100000000000000000000000200000000000000000000000,
|
||
300000000000000000000000300000000000000000000000,
|
||
100000000000100000000000100000000000000000000000,
|
||
300000000000000000000000300000000000000000600000,
|
||
000000000000000000800000000000000000000000000000,
|
||
100000000000100000000000100000000000000000000000,
|
||
100000000000000000000000100000000000100000000000,
|
||
100000000000000000000000100000000000000000000000,
|
||
100000000000100000000000100000000000000000000000,
|
||
100000000000100000000000100000000000000000000000,
|
||
100000000000000000000000100000000000100000000000,
|
||
100000000000000000000000100000000000000000000000,
|
||
100000000000100000000000100000000000000000000000,
|
||
100000000000000000000000200000000000000000000000,
|
||
100000000000000000000000000000000000000000000000,
|
||
100000000000000000000000200000000000000000000000,
|
||
100000000000000000000000000000000000000000000000,
|
||
100000000000100000000000000000000000100000000000,
|
||
100000000000100000000000000000000000100000000000,
|
||
300000000000000000000000300000000000000000000000,
|
||
100000000000100000000000100000000000000000000000,
|
||
300000000000000000000000300000000000000000000000,
|
||
100000000000100000000000100000000000100000000000,
|
||
300000000000000000000000000000000000000000000000,
|
||
#GOGOSTART
|
||
100000000000100000000000100000000000000000000000,
|
||
100000000000100000000000200000000000100000000000,
|
||
100000000000100000000000100000000000000000000000,
|
||
100000000000100000000000200000000000000000000000,
|
||
100000000000100000000000100000000000000000000000,
|
||
200000000000200000000000200000000000000000000000,
|
||
100000000000000000000000100000000000100000000000,
|
||
300000000000000000000000300000000000000000000000,
|
||
600000000000000000000000000000000000000000000000,
|
||
000000000000000000800000000000000000000000000000,
|
||
#GOGOEND
|
||
300000000000000000000000300000000000000000000000,
|
||
100000000000100000000000100000000000000000000000,
|
||
300000000000000000000000300000000000000000000000,
|
||
900000000000000000000000000000000000000000000008,
|
||
|
||
|
||
#END
|
||
|