forked from ESE/ESE
230 lines
6.7 KiB
Plaintext
230 lines
6.7 KiB
Plaintext
//TJADB Project
|
|
TITLE:Pocket Kara Kyun-desu!
|
|
TITLEJA:ポケットからきゅんです!
|
|
SUBTITLE:--Hirame🐠
|
|
SUBTITLEJA:ひらめ
|
|
BPM:90
|
|
WAVE:Pocket Kara Kyun-desu!.ogg
|
|
OFFSET:-0.237
|
|
DEMOSTART:22.667
|
|
|
|
COURSE:Oni
|
|
LEVEL:7
|
|
SCOREINIT:1080
|
|
SCOREDIFF:280
|
|
|
|
|
|
#START
|
|
|
|
|
|
#GOGOSTART
|
|
100000200200100000400000300000000000200000100000,
|
|
200200100100100000400000300000000000000000000000,
|
|
100000100200100000400000300000200200100000200200,
|
|
100100200100200000300000300000000000
|
|
|
|
#GOGOEND
|
|
000000000020,
|
|
#MEASURE 2/4
|
|
200010000020200010100000,
|
|
|
|
#GOGOSTART
|
|
#MEASURE 4/4
|
|
100000100010200000100000100000000000200010100000,
|
|
100000100010200000100000100000200020200010100000,
|
|
100000200000100000200020000000100010000010100010,
|
|
100000200010000000300000000000100000200010000010,
|
|
|
|
#GOGOEND
|
|
100000100000200000100000100000100020000010100000,
|
|
100000100010200000100000100010000020100000100000,
|
|
100000100000200010100000100000100000200000100010,
|
|
100000100020200010100020200000100010100000100000,
|
|
100000100010200000200000100000200010000010100000,
|
|
100100200000100000200000200200100000200000100010,
|
|
000010100020200000100010100020200000100010100020,
|
|
200000200010000010100000100010100000200010000010,
|
|
200000100000100000200000100000000010200000100000,
|
|
200000100000100000400000300000000000200000000010,
|
|
200000100000200000100010200000100010200000100000,
|
|
200000100010200000300000000010100010200010100000,
|
|
|
|
#GOGOSTART
|
|
200000100000200000100010200000100040000010100010,
|
|
200000100000400000100020000010100000100010200000,
|
|
100000100000100000400000300000100010200020000010,
|
|
000040000030000020100000100000000000200010100010,
|
|
100000100000100000400000500000000008000000000000,
|
|
100000100000200000200000200000000000000000000000,
|
|
300000200010000010100000
|
|
|
|
#GOGOEND
|
|
400000000000100000200000,
|
|
100000000000300000000000000000000000000000000000,
|
|
|
|
|
|
#END
|
|
|
|
|
|
COURSE:Hard
|
|
LEVEL:3
|
|
BALLOON:5,14
|
|
SCOREINIT:1130
|
|
SCOREDIFF:340
|
|
|
|
|
|
#START
|
|
|
|
|
|
#GOGOSTART
|
|
100000100100100000400000300000000000200000100000,
|
|
200000100100100000400000300000000000000000000000,
|
|
100000100100100000400000300000100000100000200000,
|
|
100000200200200000300000300000000000
|
|
#GOGOEND
|
|
000000000000,
|
|
#MEASURE 2/4
|
|
200000000000200000000000,
|
|
#GOGOSTART
|
|
#MEASURE 4/4
|
|
100000000000100000200000100000000000100000000000,
|
|
100000000000100000200000100000000000200000000000,
|
|
100000000000100000200000100000000000100000100000,
|
|
700000000800000000100000000000100000200000000000,
|
|
#GOGOEND
|
|
100000000000200000100000100000000000200000000000,
|
|
100000100000200000100000100000000000200000000000,
|
|
100000100000200000000000100000100000200000000000,
|
|
100000100000200000200000100000100000200000000000,
|
|
100000000000200000100000100000000000200000100000,
|
|
100000200000000000200000100000000000100000000000,
|
|
100000100000200000100000100000200000100000000000,
|
|
100000200000100000100000300000000000000000000000,
|
|
100000000000100000200000100000000000200000000000,
|
|
100000000000100000400000300000000000200000000000,
|
|
100000000000100000000000100000100000200000000000,
|
|
100000100000200000300000000000100000200000000000,
|
|
#GOGOSTART
|
|
100000100000200000000000100000000040000000100000,
|
|
100000100000400000000010000000100000100000200000,
|
|
100000100000100000400000300000100000200000000010,
|
|
000040000070000000000000000000000000000080000000,
|
|
100000100000100000400000500000000080000000000000,
|
|
100000100000100000200000200000000000000000000000,
|
|
300000000000000000000000
|
|
#GOGOEND
|
|
000000000000200000000000,
|
|
100000000000300000000000000000000000000000000000,
|
|
|
|
|
|
#END
|
|
|
|
|
|
COURSE:Normal
|
|
LEVEL:2
|
|
BALLOON:12,14
|
|
SCOREINIT:1420
|
|
SCOREDIFF:730
|
|
|
|
|
|
#START
|
|
|
|
|
|
#GOGOSTART
|
|
100000000000100000000000300000000000000000000000,
|
|
100000000000200000000000300000000000000000000000,
|
|
100000000000100000000000300000000000000000000000,
|
|
200000000000200000000000300000000000
|
|
#GOGOEND
|
|
000000000000,
|
|
#MEASURE 2/4
|
|
000000000000000000000000,
|
|
#GOGOSTART
|
|
#MEASURE 4/4
|
|
100000000000100000000000100000000000000000000000,
|
|
100000000000100000000000100000100000100000000000,
|
|
100000000000100000000000200000000000100000000000,
|
|
700000000000000000000000000000800000000000000000,
|
|
#GOGOEND
|
|
100000000000100000000000100000000000000000000000,
|
|
100000000000100000000000100000000000100000000000,
|
|
100000000000000000000000100000000000000000000000,
|
|
100000000000100000000000200000000000200000000000,
|
|
100000000000100000000000100000000000000000000000,
|
|
100000000000000000000000200000000000000000000000,
|
|
100000000000100000000000200000000000200000000000,
|
|
100000000000100000000000300000000000000000000000,
|
|
100000000000000000200000200000000000000000000000,
|
|
100000000000000000100000300000000000000000000000,
|
|
100000000000000000200000200000000000000000000000,
|
|
100000000000100000300000000000000000000000000000,
|
|
#GOGOSTART
|
|
100000000000100000000000100000000000400000000000,
|
|
100000000000400000000000100000000000200000000000,
|
|
100000000000100000000000300000000000200000000000,
|
|
700000000000000000000000000000000000800000000000,
|
|
100000000000000000000000200000000000000000000000,
|
|
100000000000100000000000200000000000000000000000,
|
|
300000000000000000000000
|
|
#GOGOEND
|
|
000000000000100000000000,
|
|
100000000000300000000000000000000000000000000000,
|
|
|
|
|
|
#END
|
|
|
|
|
|
COURSE:Easy
|
|
LEVEL:2
|
|
BALLOON:8,8
|
|
SCOREINIT:1370
|
|
SCOREDIFF:980
|
|
|
|
|
|
#START
|
|
|
|
|
|
#GOGOSTART
|
|
100000000000000000000000300000000000000000000000,
|
|
100000000000000000000000300000000000000000000000,
|
|
100000000000000000000000300000000000000000000000,
|
|
200000000000000000000000300000000000
|
|
#GOGOEND
|
|
000000000000,
|
|
#MEASURE 2/4
|
|
000000000000000000000000,
|
|
#GOGOSTART
|
|
#MEASURE 4/4
|
|
100000000000100000000000100000000000000000000000,
|
|
100000000000100000000000100000000000000000000000,
|
|
100000000000000000000000100000000000000000000000,
|
|
700000000000000000000000800000000000000000000000,
|
|
#GOGOEND
|
|
100000000000000000000000100000000000000000000000,
|
|
100000000000100000000000100000000000000000000000,
|
|
100000000000000000000000200000000000000000000000,
|
|
100000000000100000000000100000000000000000000000,
|
|
100000000000000000000000100000000000000000000000,
|
|
200000000000000000000000200000000000000000000000,
|
|
100000000000100000000000100000000000000000000000,
|
|
100000000000100000000000300000000000000000000000,
|
|
100000000000000000000000100000000000000000000000,
|
|
100000000000000000000000300000000000000000000000,
|
|
100000000000000000000000200000000000000000000000,
|
|
100000000000100000000000000000000000000000000000,
|
|
#GOGOSTART
|
|
100000000000100000000000100000000000000000000000,
|
|
100000000000100000000000100000000000000000000000,
|
|
100000000000100000000000300000000000000000000000,
|
|
700000000000000000000000800000000000000000000000,
|
|
100000000000000000000000100000000000000000000000,
|
|
200000000000000000000000200000000000000000000000,
|
|
300000000000000000000000
|
|
#GOGOEND
|
|
000000000000100000000000,
|
|
100000000000300000000000000000000000000000000000,
|
|
|
|
|
|
#END
|
|
|