forked from ESE/ESE
230 lines
7.6 KiB
Plaintext
230 lines
7.6 KiB
Plaintext
//TJADB Project
|
|
TITLE:Precious
|
|
TITLEJA:Precious
|
|
SUBTITLE:--Yuna Ito/LIMIT OF LOVE Umizaru
|
|
BPM:75
|
|
WAVE:Precious.ogg
|
|
OFFSET:-3.566
|
|
DEMOSTART:66.249
|
|
|
|
COURSE:Oni
|
|
LEVEL:5
|
|
BALLOON:24
|
|
SCOREINIT:1020
|
|
SCOREDIFF:270
|
|
|
|
|
|
#START
|
|
|
|
|
|
100000100000100000200000000000100000100100100200,
|
|
200000100000100000200000000000100000100000202020,
|
|
100000100000200000200000100000000000000000000000,
|
|
100000000100100000200000000000000000200000000000,
|
|
100000100000100000200000000000100000100100100200,
|
|
200000100000100000200000000000100000100000200200,
|
|
100000100000200000200000100000000000000000000100,
|
|
100000100000100000200000000000000000000000100100,
|
|
100000100100000000100000100000100000100000500000,
|
|
000000000000000000000000000000000008000000000000,
|
|
000000000000000000000000000000100000100000100000,
|
|
100000000000200000000100100000100000200000100000,
|
|
100000000100200000000100100000100000200000100100,
|
|
100000000000200000000100100000100000200000100000,
|
|
100000000100200000000100100000100000200000100100,
|
|
100000100000200000000100100000100000200000100000,
|
|
100000000000200000000100100000000000200000100000,
|
|
100000100000200000000100100000100000200000100000,
|
|
100000000000200000000100100000100000200000100000,
|
|
#SCROLL 1.5
|
|
500000000000000000000008000000300000300000300000,
|
|
|
|
#GOGOSTART
|
|
300000100000200000000100100000100000200100000100,
|
|
100000100000200000100100200000100100200100000100,
|
|
100000100000200000000100100000100000200000100000,
|
|
#SCROLL 1.6
|
|
500000000000000000000008000000300000300000400000,
|
|
300000100000200000000100100000100000200100000100,
|
|
100000100000200000100100200000100100200100000100,
|
|
100000100000200000000100100000100000200000100000,
|
|
500000000000000000000008000000100000100000200000,
|
|
#SCROLL 1.7
|
|
100100200200100100200200100000100000100010001000,
|
|
#SCROLL 1.8
|
|
100100200200100100200200100100200200000300000000,
|
|
#SCROLL 1.9
|
|
100100200200100100200200100000100000100000100000,
|
|
#SCROLL 2
|
|
700000000000000000000000000000000000000000000000,
|
|
#BARLINEOFF
|
|
#SCROLL 0.5
|
|
000800000000000000000000000000000100100000100000,
|
|
#BARLINEON
|
|
500000000000000000000000000008000000000000000000,
|
|
|
|
#GOGOEND
|
|
|
|
|
|
#END
|
|
|
|
|
|
COURSE:Hard
|
|
LEVEL:5
|
|
BALLOON:20
|
|
SCOREINIT:1090
|
|
SCOREDIFF:340
|
|
|
|
|
|
#START
|
|
|
|
|
|
100000000000100000200000000000100000100000200000,
|
|
100000000000100000200200000000100000100000200200,
|
|
100000000000000000200000100000000000000000000000,
|
|
100000000000100000200000000000000000200000000000,
|
|
100000000000100000200000000000100000100000100000,
|
|
200000100000100000200000000000000000000000000000,
|
|
100000100000200000200000100000000000000000000000,
|
|
100000100000100000200000000000000000000000100100,
|
|
100000100100000000100000100000100000100000500000,
|
|
000000000000000000000000000000000800000000000000,
|
|
000000000000000000000000000000100000100000200000,
|
|
100000000000200000000100100000000000200000000000,
|
|
100000000000200000000100100000100000200000000000,
|
|
100000000000200000000100100000000000200000000000,
|
|
100000000000200000000100100000100000200000000000,
|
|
100000000000200000000100100000100000200000100000,
|
|
100000000000200000000100100000000000200000100000,
|
|
100000000000200000000100100000100000200000100000,
|
|
100000000000200000000100100000000000200000100000,
|
|
500000000000000000000800000000300000300000300000,
|
|
|
|
#GOGOSTART
|
|
300000000000200000000100100000100000200000200000,
|
|
100000000000000000100100000000100000200200000000,
|
|
100000000000200000000100100000100000200000100000,
|
|
500000000000000000000800000000300000300000400000,
|
|
300000000000200000000100100000100000200000200000,
|
|
100000000000000000100100000000100000200200000000,
|
|
100000000000200000000100100000100000200000100000,
|
|
500000000000000000000800000000000000000000100100,
|
|
100000200200000100000100000000000000100010001000,
|
|
100000500000000000000000000000000800000000100100,
|
|
100000200200000100000100000200200000000000100000,
|
|
700000000000000000000000000000000000000000000800,
|
|
#BARLINEOFF
|
|
000000000000000000000000000000000100100000100000,
|
|
#BARLINEON
|
|
500000000000000000000000000800000000000000000000,
|
|
|
|
#GOGOEND
|
|
|
|
|
|
#END
|
|
|
|
|
|
COURSE:Normal
|
|
LEVEL:4
|
|
BALLOON:16
|
|
SCOREINIT:1890
|
|
SCOREDIFF:550
|
|
|
|
|
|
#START
|
|
|
|
|
|
100000000000000000200000000000100000200000000000,
|
|
100000000000000000200000000000000000200000000000,
|
|
100000000000000000000000200000000000000000000000,
|
|
200000000000200000000000000000000000000000000000,
|
|
100000000000000000200000000000100000200000000000,
|
|
100000000000000000200000000000000000000000000000,
|
|
100000000000000000000000200000000000000000000000,
|
|
200000000000200000000000000000000000000000100000,
|
|
100000000000200000000000100000000000000000000000,
|
|
100000000000000000000000000000000000000000000000,
|
|
000000000000000000000000000000000000000000000000,
|
|
100000000000200000000000000000100000100000000000,
|
|
100000000000200000000000000000100000200000000000,
|
|
100000000000200000000000000000100000100000000000,
|
|
100000000000200000000000100000200000000000100000,
|
|
100000000000200000000000100000000000200000000000,
|
|
500000000000000000000000800000000000000000100000,
|
|
100000000000200000000000100000000000200000000000,
|
|
100000000000000000000000000000000000000000100000,
|
|
500000000000000000800000000000000000000000000000,
|
|
#GOGOSTART
|
|
100000000000200000000000000000100000200000200000,
|
|
100000000000200000000000000000100000200000200000,
|
|
100000000000200000000000000000000000200000200000,
|
|
100000000000500000000000000000800000000000000000,
|
|
100000000000200000000000000000100000200000200000,
|
|
100000000000200000000000000000100000200000200000,
|
|
100000000000500000000000000000800000000000000000,
|
|
100000000000200000000000100000000000200000000000,
|
|
100000100000100000000000100000000000100000000000,
|
|
100000100000100000000000100000000000000000000000,
|
|
100000100000100000000000100000000000100000000000,
|
|
700000000000000000000000000000000000000000800000,
|
|
000000000000000000000000000000000000100000100000,
|
|
500000000000000000000000800000000000000000000000,
|
|
000000000000000000000000000000000000000000000000,
|
|
#GOGOEND
|
|
|
|
|
|
#END
|
|
|
|
|
|
COURSE:Easy
|
|
LEVEL:3
|
|
BALLOON:8
|
|
SCOREINIT:2030
|
|
SCOREDIFF:720
|
|
|
|
|
|
#START
|
|
|
|
|
|
100000000000000000000000200000000000000000000000,
|
|
100000000000000000000000000000000000000000000000,
|
|
100000000000000000000000200000000000000000000000,
|
|
100000000000000000000000000000000000000000000000,
|
|
100000000000000000000000200000000000000000000000,
|
|
100000000000000000000000000000000000000000000000,
|
|
100000000000000000000000200000000000000000000000,
|
|
100000000000000000000000000000000000000000000000,
|
|
100000000000000000000000100000000000000000000000,
|
|
100000000000000000000000000000000000000000000000,
|
|
000000000000000000000000000000000000000000000000,
|
|
100000000000200000000000000000000000100000000000,
|
|
100000000000200000000000000000000000100000000000,
|
|
100000000000200000000000000000000000100000000000,
|
|
100000000000200000000000000000000000100000000000,
|
|
100000000000000000000000100000000000000000000000,
|
|
100000000000200000000000000000000000000000000000,
|
|
100000000000000000000000100000000000000000000000,
|
|
100000000000200000000000000000000000000000000000,
|
|
500000000000000000000000800000000000000000000000,
|
|
#GOGOSTART
|
|
100000000000200000000000000000000000100000000000,
|
|
100000000000000000000000100000000000000000000000,
|
|
100000000000200000000000000000000000100000000000,
|
|
100000000000500000000000800000000000000000000000,
|
|
100000000000200000000000000000000000100000000000,
|
|
100000000000000000000000100000000000000000000000,
|
|
100000000000200000000000000000000000100000000000,
|
|
100000000000200000000000100000000000200000000000,
|
|
100000000000100000000000100000000000000000000000,
|
|
100000000000100000000000100000000000000000000000,
|
|
100000000000100000000000100000000000000000000000,
|
|
900000000000000000000000000000000000000000000000,
|
|
800000000000000000000000000000000000100000000000,
|
|
500000000000000000000000800000000000000000000000,
|
|
000000000000000000000000000000000000000000000000,
|
|
#GOGOEND
|
|
|
|
|
|
#END
|
|
|