forked from ESE/ESE
1287 lines
16 KiB
Plaintext
1287 lines
16 KiB
Plaintext
//TJADB Project
|
|
TITLE:Punishment
|
|
TITLEJA:Punishment
|
|
SUBTITLE:--9mm Parabellum Bullet
|
|
SUBTITLEJA:9mm Parabellum Bullet
|
|
BPM:212.43
|
|
WAVE:Punishment.ogg
|
|
OFFSET:-4.655
|
|
DEMOSTART:48.824
|
|
|
|
COURSE:Oni
|
|
LEVEL:9
|
|
BALLOON:40,40
|
|
SCOREINIT:290
|
|
SCOREDIFF:70
|
|
|
|
|
|
#START
|
|
|
|
|
|
#BPMCHANGE 212.43
|
|
0,
|
|
#BPMCHANGE 213.8
|
|
#SCROLL 0.99
|
|
0,
|
|
#BPMCHANGE 212.02
|
|
#SCROLL 1
|
|
0,
|
|
#BPMCHANGE 213.66
|
|
#SCROLL 0.99
|
|
3003003003000000,
|
|
#BPMCHANGE 216.46
|
|
#SCROLL 0.98
|
|
1011102000111020,
|
|
1022102010201120,
|
|
#BPMCHANGE 214.91
|
|
1011102000111020,
|
|
#BPMCHANGE 213.21
|
|
#SCROLL 0.99
|
|
1022102010221020,
|
|
#BPMCHANGE 218.94
|
|
#SCROLL 0.97
|
|
1011102000111020,
|
|
#BPMCHANGE 216.6
|
|
#SCROLL 0.98
|
|
1022102010201120,
|
|
#BPMCHANGE 214.49
|
|
#SCROLL 0.99
|
|
1011102000111020,
|
|
#BPMCHANGE 225
|
|
#SCROLL 0.94
|
|
1022102010221120,
|
|
#BPMCHANGE 216.92
|
|
#SCROLL 0.97
|
|
2022102000211020,
|
|
#BPMCHANGE 217.06
|
|
1022102010201120,
|
|
#BPMCHANGE 215.68
|
|
#SCROLL 0.98
|
|
2022102000211020,
|
|
#BPMCHANGE 218.46
|
|
#SCROLL 0.97
|
|
1022102010201120,
|
|
#BPMCHANGE 217.31
|
|
2022102000211020,
|
|
1022102010201120,
|
|
#BPMCHANGE 217.06
|
|
2022102000211020,
|
|
#BPMCHANGE 221.39
|
|
#SCROLL 0.95
|
|
1022102011221120,
|
|
#BPMCHANGE 216.99
|
|
#SCROLL 0.97
|
|
1010111010101110,
|
|
1010111010101110,
|
|
#BPMCHANGE 218.11
|
|
1010111010101110,
|
|
#BPMCHANGE 217.1
|
|
1010111010201000,
|
|
1010111010101110,
|
|
#BPMCHANGE 216.32
|
|
#SCROLL 0.98
|
|
1010111010101110,
|
|
12021202,
|
|
#BPMCHANGE 218.75
|
|
#SCROLL 0.97
|
|
1022102010201000,
|
|
#BPMCHANGE 218.32
|
|
1010111110101111,
|
|
1010111110101111,
|
|
1010111110101111,
|
|
#BPMCHANGE 217.03
|
|
1010111010201000,
|
|
#BPMCHANGE 216.89
|
|
1010111110101111,
|
|
1010111110101111,
|
|
12021202,
|
|
#BPMCHANGE 220.05
|
|
#SCROLL 0.96
|
|
1021102010201000,
|
|
#BPMCHANGE 224.09
|
|
#SCROLL 0.94
|
|
3,
|
|
#BPMCHANGE 212.84
|
|
#SCROLL 0.99
|
|
0,
|
|
#BPMCHANGE 204.42
|
|
#SCROLL 1.03
|
|
33,
|
|
#BPMCHANGE 221.68
|
|
#SCROLL 0.95
|
|
3003003003000000,
|
|
|
|
#GOGOSTART
|
|
#BPMCHANGE 219.62
|
|
#SCROLL 0.96
|
|
1020112010221020,
|
|
#BPMCHANGE 216.79
|
|
#SCROLL 0.97
|
|
1020112010221020,
|
|
1022102000201120,
|
|
1011201011201020,
|
|
#BPMCHANGE 216.32
|
|
#SCROLL 0.98
|
|
1020112010221020,
|
|
1020112010221020,
|
|
1022102000201120,
|
|
#BPMCHANGE 220.72
|
|
#SCROLL 0.96
|
|
1011201011201020,
|
|
#BPMCHANGE 219.11
|
|
1020112010221020,
|
|
#BPMCHANGE 213.94
|
|
#SCROLL 0.99
|
|
1020112010221020,
|
|
#BPMCHANGE 217.46
|
|
#SCROLL 0.97
|
|
1022102000201120,
|
|
#BPMCHANGE 218.82
|
|
1011201011201020,
|
|
1020112010221020,
|
|
#BPMCHANGE 215.12
|
|
#SCROLL 0.98
|
|
1020112010221020,
|
|
1022102000201120,
|
|
#BPMCHANGE 217.17
|
|
#SCROLL 0.97
|
|
1011201011201020,
|
|
|
|
#GOGOEND
|
|
12111040,
|
|
#BPMCHANGE 219.19
|
|
#SCROLL 0.96
|
|
1020111010004000,
|
|
12111040,
|
|
#BPMCHANGE 215.38
|
|
#SCROLL 0.98
|
|
1020111010104000,
|
|
1011102010111020,
|
|
1011102010111020,
|
|
#BPMCHANGE 217.31
|
|
#SCROLL 0.97
|
|
1022102010221020,
|
|
#BPMCHANGE 213.94
|
|
#SCROLL 0.99
|
|
3003003003000011,
|
|
#BPMCHANGE 219.91
|
|
#SCROLL 0.96
|
|
12222111,
|
|
#BPMCHANGE 213.94
|
|
#SCROLL 0.99
|
|
12222111,
|
|
#BPMCHANGE 211.34
|
|
#SCROLL 1
|
|
12221222,
|
|
#BPMCHANGE 218.17
|
|
#SCROLL 0.97
|
|
12221222,
|
|
2000201020102210,
|
|
#BPMCHANGE 213.73
|
|
#SCROLL 0.99
|
|
2000201020102210,
|
|
2022102010221020,
|
|
#BPMCHANGE 222.28
|
|
#SCROLL 0.95
|
|
1022102010221120,
|
|
#BPMCHANGE 219.62
|
|
#SCROLL 0.96
|
|
1000102010201120,
|
|
#BPMCHANGE 215.68
|
|
#SCROLL 0.98
|
|
1000102010201120,
|
|
1011201011201011,
|
|
#BPMCHANGE 215.12
|
|
2010112211221000,
|
|
2000201020102210,
|
|
#BPMCHANGE 211.88
|
|
#SCROLL 1
|
|
2000201020102210,
|
|
1022102010221020,
|
|
#BPMCHANGE 215.61
|
|
#SCROLL 0.98
|
|
1022102010221120,
|
|
#BPMCHANGE 206.72
|
|
#SCROLL 1.02
|
|
7,
|
|
0,
|
|
#BPMCHANGE 206.85
|
|
0,
|
|
#BPMCHANGE 211.88
|
|
#SCROLL 1
|
|
8,
|
|
#BPMCHANGE 210.67
|
|
12222222,
|
|
#BPMCHANGE 208.46
|
|
#SCROLL 1.01
|
|
12222222,
|
|
12221222,
|
|
12212212,
|
|
#BPMCHANGE 205.9
|
|
#SCROLL 1.03
|
|
7,
|
|
0,
|
|
#BPMCHANGE 208.68
|
|
#SCROLL 1.01
|
|
0,
|
|
#BPMCHANGE 213.94
|
|
#SCROLL 0.99
|
|
8,
|
|
#BPMCHANGE 210.22
|
|
#SCROLL 1
|
|
12222222,
|
|
12222222,
|
|
12221222,
|
|
#BPMCHANGE 211.75
|
|
12212212,
|
|
#BPMCHANGE 220.21
|
|
#SCROLL 0.96
|
|
3,
|
|
#BPMCHANGE 219.91
|
|
,
|
|
#BPMCHANGE 210.13
|
|
#SCROLL 1.01
|
|
,
|
|
#BPMCHANGE 219.04
|
|
#SCROLL 0.96
|
|
,
|
|
#BPMCHANGE 211.88
|
|
#SCROLL 1
|
|
1011102010111020,
|
|
#BPMCHANGE 215.47
|
|
#SCROLL 0.98
|
|
1011102010111020,
|
|
#BPMCHANGE 213.66
|
|
#SCROLL 0.99
|
|
1022102010221020,
|
|
#BPMCHANGE 216.46
|
|
#SCROLL 0.98
|
|
3003003003000000,
|
|
|
|
#GOGOSTART
|
|
#BPMCHANGE 221.09
|
|
#SCROLL 0.96
|
|
1020112010221020,
|
|
#BPMCHANGE 212.16
|
|
#SCROLL 1
|
|
1020112010221020,
|
|
#BPMCHANGE 211.54
|
|
1022112000201120,
|
|
1011201011201020,
|
|
#BPMCHANGE 216.32
|
|
#SCROLL 0.98
|
|
1020112010221020,
|
|
#BPMCHANGE 212.98
|
|
#SCROLL 0.99
|
|
1020112010221020,
|
|
#BPMCHANGE 216.18
|
|
#SCROLL 0.98
|
|
1022112000201120,
|
|
#BPMCHANGE 219.91
|
|
#SCROLL 0.96
|
|
1011201011201020,
|
|
1020112010221020,
|
|
#BPMCHANGE 209.6
|
|
#SCROLL 1.01
|
|
1020112010221020,
|
|
#BPMCHANGE 212.43
|
|
#SCROLL 1
|
|
1022112000201120,
|
|
#BPMCHANGE 219.04
|
|
#SCROLL 0.96
|
|
1011201011201020,
|
|
#BPMCHANGE 217.31
|
|
#SCROLL 0.97
|
|
1020112010221020,
|
|
#BPMCHANGE 212.84
|
|
#SCROLL 0.99
|
|
1020112010221020,
|
|
#BPMCHANGE 214.56
|
|
1022112000201120,
|
|
1011201011201020,
|
|
|
|
#GOGOEND
|
|
#BPMCHANGE 205.82
|
|
#SCROLL 1.03
|
|
10333033,
|
|
#BPMCHANGE 209.87
|
|
#SCROLL 1.01
|
|
30343033,
|
|
#BPMCHANGE 209.47
|
|
30333033,
|
|
#BPMCHANGE 216.18
|
|
#SCROLL 0.98
|
|
30343033,
|
|
#BPMCHANGE 211.14
|
|
#SCROLL 1
|
|
30030030030021120,
|
|
#BPMCHANGE 211.51
|
|
30030030030021120,
|
|
30030030030021120,
|
|
#BPMCHANGE 208.81
|
|
#SCROLL 1.01
|
|
30030030030002211,
|
|
#BPMCHANGE 205
|
|
1,
|
|
|
|
|
|
#END
|
|
|
|
|
|
COURSE:Hard
|
|
LEVEL:8
|
|
BALLOON:25,25
|
|
SCOREINIT:400
|
|
SCOREDIFF:95
|
|
|
|
|
|
#START
|
|
|
|
|
|
0,
|
|
#BPMCHANGE 213.8
|
|
#SCROLL 0.99
|
|
0,
|
|
#BPMCHANGE 212.02
|
|
#SCROLL 1
|
|
0,
|
|
#BPMCHANGE 213.66
|
|
#SCROLL 0.99
|
|
3003003003000000,
|
|
#BPMCHANGE 216.46
|
|
#SCROLL 0.98
|
|
11110012,
|
|
10121210,
|
|
#BPMCHANGE 214.91
|
|
11110012,
|
|
#BPMCHANGE 213.21
|
|
#SCROLL 0.99
|
|
10121210,
|
|
#BPMCHANGE 218.94
|
|
#SCROLL 0.97
|
|
11110012,
|
|
#BPMCHANGE 216.6
|
|
#SCROLL 0.98
|
|
10121210,
|
|
#BPMCHANGE 214.49
|
|
#SCROLL 0.99
|
|
11110012,
|
|
#BPMCHANGE 225
|
|
#SCROLL 0.94
|
|
12201220,
|
|
#BPMCHANGE 216.92
|
|
#SCROLL 0.97
|
|
11110212,
|
|
#BPMCHANGE 217.06
|
|
10121210,
|
|
#BPMCHANGE 215.68
|
|
#SCROLL 0.98
|
|
11110212,
|
|
#BPMCHANGE 218.46
|
|
#SCROLL 0.97
|
|
10121210,
|
|
#BPMCHANGE 217.31
|
|
11110212,
|
|
10121210,
|
|
#BPMCHANGE 217.06
|
|
11110212,
|
|
#BPMCHANGE 221.39
|
|
#SCROLL 0.95
|
|
12201220,
|
|
#BPMCHANGE 216.99
|
|
#SCROLL 0.97
|
|
11111011,
|
|
10111011,
|
|
#BPMCHANGE 218.11
|
|
10111011,
|
|
#BPMCHANGE 217.1
|
|
11101210,
|
|
11111011,
|
|
#BPMCHANGE 216.32
|
|
#SCROLL 0.98
|
|
10111011,
|
|
120221202,
|
|
#BPMCHANGE 218.75
|
|
#SCROLL 0.97
|
|
12021210,
|
|
#BPMCHANGE 218.32
|
|
11111011,
|
|
10111011,
|
|
10111011,
|
|
#BPMCHANGE 217.03
|
|
10111210,
|
|
#BPMCHANGE 216.89
|
|
11111011,
|
|
10111011,
|
|
12021202,
|
|
#BPMCHANGE 220.05
|
|
#SCROLL 0.96
|
|
12021210,
|
|
#BPMCHANGE 224.09
|
|
#SCROLL 0.94
|
|
3,
|
|
#BPMCHANGE 212.84
|
|
#SCROLL 0.99
|
|
0,
|
|
#BPMCHANGE 204.42
|
|
#SCROLL 1.03
|
|
33,
|
|
#BPMCHANGE 221.68
|
|
#SCROLL 0.95
|
|
3003003003000000,
|
|
|
|
#GOGOSTART
|
|
#BPMCHANGE 219.62
|
|
#SCROLL 0.96
|
|
1000200011102000,
|
|
#BPMCHANGE 216.79
|
|
#SCROLL 0.97
|
|
1000200011102000,
|
|
12120212,
|
|
10111000,
|
|
#BPMCHANGE 216.32
|
|
#SCROLL 0.98
|
|
1000200011102000,
|
|
1000200011102000,
|
|
12120212,
|
|
#BPMCHANGE 220.72
|
|
#SCROLL 0.96
|
|
10121000,
|
|
#BPMCHANGE 219.11
|
|
1000200011102000,
|
|
#BPMCHANGE 213.94
|
|
#SCROLL 0.99
|
|
1000200011102000,
|
|
#BPMCHANGE 217.46
|
|
#SCROLL 0.97
|
|
12120212,
|
|
#BPMCHANGE 218.82
|
|
10111020,
|
|
1000200011102000,
|
|
#BPMCHANGE 215.12
|
|
#SCROLL 0.98
|
|
1000200011102000,
|
|
12120212,
|
|
#BPMCHANGE 217.17
|
|
#SCROLL 0.97
|
|
10121020,
|
|
|
|
#GOGOEND
|
|
10111020,
|
|
#BPMCHANGE 219.19
|
|
#SCROLL 0.96
|
|
10121020,
|
|
10111020,
|
|
#BPMCHANGE 215.38
|
|
#SCROLL 0.98
|
|
10121020,
|
|
10111011,
|
|
10111011,
|
|
#BPMCHANGE 217.31
|
|
#SCROLL 0.97
|
|
10111010,
|
|
#BPMCHANGE 213.94
|
|
#SCROLL 0.99
|
|
3003003003000000,
|
|
#BPMCHANGE 219.91
|
|
#SCROLL 0.96
|
|
12222020,
|
|
#BPMCHANGE 213.94
|
|
#SCROLL 0.99
|
|
12222020,
|
|
#BPMCHANGE 211.34
|
|
#SCROLL 1
|
|
22202220,
|
|
#BPMCHANGE 218.17
|
|
#SCROLL 0.97
|
|
11221122,
|
|
2000202020002220,
|
|
#BPMCHANGE 213.73
|
|
#SCROLL 0.99
|
|
2000202020002220,
|
|
20222022,
|
|
#BPMCHANGE 222.28
|
|
#SCROLL 0.95
|
|
20222022,
|
|
#BPMCHANGE 219.62
|
|
#SCROLL 0.96
|
|
11222020,
|
|
#BPMCHANGE 215.68
|
|
#SCROLL 0.98
|
|
11222020,
|
|
2220202020002000,
|
|
#BPMCHANGE 215.12
|
|
2220202020002000,
|
|
10212120,
|
|
#BPMCHANGE 211.88
|
|
#SCROLL 1
|
|
10212120,
|
|
2220202020002000,
|
|
#BPMCHANGE 215.61
|
|
#SCROLL 0.98
|
|
2220202020002000,
|
|
#BPMCHANGE 206.72
|
|
#SCROLL 1.02
|
|
7,
|
|
0,
|
|
#BPMCHANGE 206.85
|
|
0,
|
|
#BPMCHANGE 211.88
|
|
#SCROLL 1
|
|
8,
|
|
#BPMCHANGE 210.67
|
|
22222220,
|
|
#BPMCHANGE 208.46
|
|
#SCROLL 1.01
|
|
22222220,
|
|
22222220,
|
|
22202220,
|
|
#BPMCHANGE 205.9
|
|
#SCROLL 1.03
|
|
7,
|
|
0,
|
|
#BPMCHANGE 208.68
|
|
#SCROLL 1.01
|
|
0,
|
|
#BPMCHANGE 213.94
|
|
#SCROLL 0.99
|
|
8,
|
|
#BPMCHANGE 210.22
|
|
#SCROLL 1
|
|
22222220,
|
|
22222220,
|
|
22222220,
|
|
#BPMCHANGE 211.75
|
|
22202220,
|
|
#BPMCHANGE 220.21
|
|
#SCROLL 0.96
|
|
3,
|
|
#BPMCHANGE 219.91
|
|
0,
|
|
#BPMCHANGE 210.13
|
|
#SCROLl 1.01
|
|
0,
|
|
#BPMCHANGE 219.04
|
|
#SCROLL 0.96
|
|
0,
|
|
#BPMCHANGE 211.88
|
|
#SCROLL 1
|
|
10111011,
|
|
#BPMCHANGE 215.47
|
|
#SCROLL 0.98
|
|
10111011,
|
|
#BPMCHANGE 213.66
|
|
#SCROLL 0.99
|
|
10111010,
|
|
#BPMCHANGE 216.46
|
|
#SCROLL 0.98
|
|
3003003003000000,
|
|
|
|
#GOGOSTART
|
|
#BPMCHANGE 221.09
|
|
#SCROLL 0.96
|
|
1000200011102000,
|
|
#BPMCHANGE 212.16
|
|
#SCROLL 1
|
|
1000200011102000,
|
|
#BPMCHANGE 211.54
|
|
12120212,
|
|
10111020,
|
|
#BPMCHANGE 216.32
|
|
#SCROLL 0.98
|
|
1000200011102000,
|
|
#BPMCHANGE 212.98
|
|
#SCROLL 0.99
|
|
1000200011102000,
|
|
#BPMCHANGE 216.18
|
|
#SCROLL 0.98
|
|
12120212,
|
|
#BPMCHANGE 219.91
|
|
#SCROLL 0.96
|
|
10121020,
|
|
1010200011102000,
|
|
#BPMCHANGE 209.6
|
|
#SCROLL 1.01
|
|
1010200011102000,
|
|
#BPMCHANGE 212.43
|
|
#SCROLL 1
|
|
12120212,
|
|
#BPMCHANGE 219.04
|
|
#SCROLL 0.96
|
|
10111020,
|
|
#BPMCHANGE 217.31
|
|
#SCROLL 0.97
|
|
1010200011102000,
|
|
#BPMCHANGE 212.84
|
|
#SCROLL 0.99
|
|
1010200011102000,
|
|
#BPMCHANGE 214.56
|
|
12120212,
|
|
10121020,
|
|
|
|
#GOGOEND
|
|
#BPMCHANGE 205.82
|
|
#SCROLL 1.03
|
|
30333003,
|
|
#BPMCHANGE 209.87
|
|
#SCROLL 1.01
|
|
30333040,
|
|
#BPMCHANGE 209.47
|
|
30333003,
|
|
#BPMCHANGE 216.18
|
|
#SCROLL 0.98
|
|
30333040,
|
|
#BPMCHANGE 211.14
|
|
#SCROLL 1
|
|
1020001011101000,
|
|
#BPMCHANGE 211.51
|
|
1020001011101000,
|
|
1020001011101000,
|
|
#BPMCHANGE 208.81
|
|
#SCROLL 1.01
|
|
12011033,
|
|
#BPMCHANGE 205
|
|
3,
|
|
|
|
|
|
#END
|
|
|
|
|
|
COURSE:Normal
|
|
LEVEL:4
|
|
BALLOON:15,15
|
|
SCOREINIT:620
|
|
SCOREDIFF:180
|
|
|
|
|
|
#START
|
|
|
|
|
|
,
|
|
#BPMCHANGE 213.8
|
|
#SCROLL 0.99
|
|
0,
|
|
#BPMCHANGE 212.02
|
|
#SCROLL 1
|
|
0,
|
|
#BPMCHANGE 213.66
|
|
#SCROLL 0.99
|
|
3,
|
|
#BPMCHANGE 216.46
|
|
#SCROLL 0.98
|
|
1101,
|
|
1100,
|
|
#BPMCHANGE 214.91
|
|
1101,
|
|
#BPMCHANGE 213.21
|
|
#SCROLL 0.99
|
|
1100,
|
|
#BPMCHANGE 218.94
|
|
#SCROLL 0.97
|
|
1101,
|
|
#BPMCHANGE 216.6
|
|
#SCROLL 0.98
|
|
1100,
|
|
#BPMCHANGE 214.49
|
|
#SCROLL 0.99
|
|
1101,
|
|
#BPMCHANGE 225
|
|
#SCROLL 0.94
|
|
1100,
|
|
#BPMCHANGE 216.92
|
|
#SCROLL 0.97
|
|
2202,
|
|
#BPMCHANGE 217.06
|
|
2200,
|
|
#BPMCHANGE 215.68
|
|
#SCROLL 0.98
|
|
2202,
|
|
#BPMCHANGE 218.46
|
|
#SCROLL 0.97
|
|
2200,
|
|
#BPMCHANGE 217.31
|
|
2202,
|
|
2200,
|
|
#BPMCHANGE 217.06
|
|
2202,
|
|
#BPMCHANGE 221.39
|
|
#SCROLL 0.95
|
|
2200,
|
|
#BPMCHANGE 216.99
|
|
#SCROLL 0.97
|
|
11,
|
|
11,
|
|
#BPMCHANGE 218.11
|
|
1110,
|
|
#BPMCHANGE 217.1
|
|
1,
|
|
11,
|
|
#BPMCHANGE 216.32
|
|
#SCROLL 0.98
|
|
11,
|
|
5,
|
|
#BPMCHANGE 218.75
|
|
#SCROLL 0.97
|
|
00000800,
|
|
#BPMCHANGE 218.32
|
|
1110,
|
|
1110,
|
|
1110,
|
|
#BPMCHANGE 217.03
|
|
1,
|
|
#BPMCHANGE 216.89
|
|
1110,
|
|
1110,
|
|
5,
|
|
#BPMCHANGE 220.05
|
|
#SCROLL 0.96
|
|
00000800,
|
|
#BPMCHANGE 224.09
|
|
#SCROLL 0.94
|
|
3,
|
|
#BPMCHANGE 212.84
|
|
#SCROLL 0.99
|
|
0,
|
|
#BPMCHANGE 204.42
|
|
#SCROLL 1.03
|
|
33,
|
|
#BPMCHANGE 221.68
|
|
#SCROLL 0.95
|
|
3,
|
|
|
|
#GOGOSTART
|
|
#BPMCHANGE 219.62
|
|
#SCROLL 0.96
|
|
1110,
|
|
#BPMCHANGE 216.79
|
|
#SCROLL 0.97
|
|
1110,
|
|
11,
|
|
1,
|
|
#BPMCHANGE 216.32
|
|
#SCROLL 0.98
|
|
1110,
|
|
1110,
|
|
11,
|
|
#BPMCHANGE 220.72
|
|
#SCROLL 0.96
|
|
1,
|
|
#BPMCHANGE 219.11
|
|
1110,
|
|
#BPMCHANGE 213.94
|
|
#SCROLL 0.99
|
|
2220,
|
|
#BPMCHANGE 217.46
|
|
#SCROLL 0.97
|
|
11,
|
|
#BPMCHANGE 218.82
|
|
1,
|
|
1110,
|
|
#BPMCHANGE 215.12
|
|
#SCROLL 0.98
|
|
2220,
|
|
11,
|
|
#BPMCHANGE 217.17
|
|
#SCROLL 0.97
|
|
1,
|
|
|
|
#GOGOEND
|
|
1102,
|
|
#BPMCHANGE 219.19
|
|
#SCROLL 0.96
|
|
1120,
|
|
1102,
|
|
#BPMCHANGE 215.38
|
|
#SCROLL 0.98
|
|
1120,
|
|
11,
|
|
11,
|
|
#BPMCHANGE 217.31
|
|
#SCROLL 0.97
|
|
11,
|
|
#BPMCHANGE 213.94
|
|
#SCROLL 0.99
|
|
3,
|
|
#BPMCHANGE 219.91
|
|
#SCROLL 0.96
|
|
12,
|
|
#BPMCHANGE 213.94
|
|
#SCROLL 0.99
|
|
12,
|
|
#BPMCHANGE 211.34
|
|
#SCROLL 1
|
|
2202,
|
|
#BPMCHANGE 218.17
|
|
#SCROLL 0.97
|
|
2202,
|
|
2220,
|
|
#BPMCHANGE 213.73
|
|
#SCROLL 0.99
|
|
2220,
|
|
2222,
|
|
#BPMCHANGE 222.28
|
|
#SCROLL 0.95
|
|
2220,
|
|
#BPMCHANGE 219.62
|
|
#SCROLL 0.96
|
|
1220,
|
|
#BPMCHANGE 215.68
|
|
#SCROLL 0.98
|
|
1220,
|
|
2220,
|
|
#BPMCHANGE 215.12
|
|
2220,
|
|
1220,
|
|
#BPMCHANGE 211.88
|
|
#SCROLL 1
|
|
1220,
|
|
2222,
|
|
#BPMCHANGE 215.61
|
|
#SCROLL 0.98
|
|
2220,
|
|
#BPMCHANGE 206.72
|
|
#SCROLL 1.02
|
|
7,
|
|
0,
|
|
#BPMCHANGE 206.85
|
|
0,
|
|
#BPMCHANGE 211.88
|
|
#SCROLL 1
|
|
8,
|
|
#BPMCHANGE 210.67
|
|
2,
|
|
#BPMCHANGE 208.46
|
|
#SCROLL 1.01
|
|
2,
|
|
22,
|
|
22,
|
|
#BPMCHANGE 205.9
|
|
#SCROLL 1.03
|
|
7,
|
|
0,
|
|
#BPMCHANGE 208.68
|
|
#SCROLL 1.01
|
|
0,
|
|
#BPMCHANGE 213.94
|
|
#SCROLL 0.99
|
|
8,
|
|
#BPMCHANGE 210.22
|
|
#SCROLL 1
|
|
2,
|
|
2,
|
|
22,
|
|
#BPMCHANGE 211.75
|
|
22,
|
|
#BPMCHANGE 220.21
|
|
#SCROLL 0.96
|
|
3,
|
|
#BPMCHANGE 219.91
|
|
0,
|
|
#BPMCHANGE 210.13
|
|
#SCROLl 1.01
|
|
0,
|
|
#BPMCHANGE 219.04
|
|
#SCROLL 0.96
|
|
0,
|
|
#BPMCHANGE 211.88
|
|
#SCROLL 1
|
|
11,
|
|
#BPMCHANGE 215.47
|
|
#SCROLL 0.98
|
|
11,
|
|
#BPMCHANGE 213.66
|
|
#SCROLL 0.99
|
|
1110,
|
|
#BPMCHANGE 216.46
|
|
#SCROLL 0.98
|
|
3,
|
|
|
|
#GOGOSTART
|
|
#BPMCHANGE 221.09
|
|
#SCROLL 0.96
|
|
1110,
|
|
#BPMCHANGE 212.16
|
|
#SCROLL 1
|
|
1110,
|
|
#BPMCHANGE 211.54
|
|
1111,
|
|
1,
|
|
#BPMCHANGE 216.32
|
|
#SCROLL 0.98
|
|
1110,
|
|
#BPMCHANGE 212.98
|
|
#SCROLL 0.99
|
|
1110,
|
|
#BPMCHANGE 216.18
|
|
#SCROLL 0.98
|
|
1111,
|
|
#BPMCHANGE 219.91
|
|
#SCROLL 0.96
|
|
1,
|
|
1110,
|
|
#BPMCHANGE 209.6
|
|
#SCROLL 1.01
|
|
2220,
|
|
#BPMCHANGE 212.43
|
|
#SCROLL 1
|
|
1111,
|
|
#BPMCHANGE 219.04
|
|
#SCROLL 0.96
|
|
1,
|
|
#BPMCHANGE 217.31
|
|
#SCROLL 0.97
|
|
1110,
|
|
#BPMCHANGE 212.84
|
|
#SCROLL 0.99
|
|
2220,
|
|
#BPMCHANGE 214.56
|
|
1111,
|
|
1,
|
|
#GOGOEND
|
|
|
|
#BPMCHANGE 205.82
|
|
#SCROLL 1.03
|
|
33,
|
|
#BPMCHANGE 209.87
|
|
#SCROLL 1.01
|
|
3,
|
|
#BPMCHANGE 209.47
|
|
33,
|
|
#BPMCHANGE 216.18
|
|
#SCROLL 0.98
|
|
3,
|
|
#BPMCHANGE 211.14
|
|
#SCROLL 1
|
|
33,
|
|
#BPMCHANGE 211.51
|
|
33,
|
|
33,
|
|
#BPMCHANGE 208.81
|
|
#SCROLL 1.01
|
|
3033,
|
|
#BPMCHANGE 205
|
|
3,
|
|
|
|
|
|
#END
|
|
|
|
|
|
COURSE:Easy
|
|
LEVEL:4
|
|
BALLOON:6,6,10,10
|
|
SCOREINIT:620
|
|
SCOREDIFF:213
|
|
|
|
|
|
#START
|
|
|
|
|
|
,
|
|
#BPMCHANGE 213.8
|
|
#SCROLL 0.99
|
|
0,
|
|
#BPMCHANGE 212.02
|
|
#SCROLL 1
|
|
0,
|
|
#BPMCHANGE 213.66
|
|
#SCROLL 0.99
|
|
3,
|
|
#BPMCHANGE 216.46
|
|
#SCROLL 0.98
|
|
11,
|
|
1,
|
|
#BPMCHANGE 214.91
|
|
11,
|
|
#BPMCHANGE 213.21
|
|
#SCROLL 0.99
|
|
1,
|
|
#BPMCHANGE 218.94
|
|
#SCROLL 0.97
|
|
11,
|
|
#BPMCHANGE 216.6
|
|
#SCROLL 0.98
|
|
1,
|
|
#BPMCHANGE 214.49
|
|
#SCROLL 0.99
|
|
11,
|
|
#BPMCHANGE 225
|
|
#SCROLL 0.94
|
|
1,
|
|
#BPMCHANGE 216.92
|
|
#SCROLL 0.97
|
|
22,
|
|
#BPMCHANGE 217.06
|
|
2,
|
|
#BPMCHANGE 215.68
|
|
#SCROLL 0.98
|
|
22,
|
|
#BPMCHANGE 218.46
|
|
#SCROLL 0.97
|
|
2,
|
|
#BPMCHANGE 217.31
|
|
22,
|
|
2,
|
|
#BPMCHANGE 217.06
|
|
22,
|
|
#BPMCHANGE 221.39
|
|
#SCROLL 0.95
|
|
2,
|
|
#BPMCHANGE 216.99
|
|
#SCROLL 0.97
|
|
1,
|
|
1,
|
|
#BPMCHANGE 218.11
|
|
11,
|
|
#BPMCHANGE 217.1
|
|
1,
|
|
50000800,
|
|
#BPMCHANGE 216.32
|
|
#SCROLL 0.98
|
|
50000800,
|
|
7,
|
|
#BPMCHANGE 218.75
|
|
#SCROLL 0.97
|
|
0008,
|
|
#BPMCHANGE 218.32
|
|
11,
|
|
1,
|
|
11,
|
|
#BPMCHANGE 217.03
|
|
1,
|
|
#BPMCHANGE 216.89
|
|
50000800,
|
|
50000800,
|
|
7,
|
|
#BPMCHANGE 220.05
|
|
#SCROLL 0.96
|
|
0008,
|
|
#BPMCHANGE 224.09
|
|
#SCROLL 0.94
|
|
3,
|
|
#BPMCHANGE 212.84
|
|
#SCROLL 0.99
|
|
0,
|
|
#BPMCHANGE 204.42
|
|
#SCROLL 1.03
|
|
33,
|
|
#BPMCHANGE 221.68
|
|
#SCROLL 0.95
|
|
3,
|
|
|
|
#GOGOSTART
|
|
#BPMCHANGE 219.62
|
|
#SCROLL 0.96
|
|
11,
|
|
#BPMCHANGE 216.79
|
|
#SCROLL 0.97
|
|
1110,
|
|
1,
|
|
0,
|
|
#BPMCHANGE 216.32
|
|
#SCROLL 0.98
|
|
11,
|
|
1110,
|
|
1,
|
|
#BPMCHANGE 220.72
|
|
#SCROLL 0.96
|
|
0,
|
|
#BPMCHANGE 219.11
|
|
11,
|
|
#BPMCHANGE 213.94
|
|
#SCROLL 0.99
|
|
1110,
|
|
#BPMCHANGE 217.46
|
|
#SCROLL 0.97
|
|
1,
|
|
#BPMCHANGE 218.82
|
|
0,
|
|
11,
|
|
#BPMCHANGE 215.12
|
|
#SCROLL 0.98
|
|
1110,
|
|
1,
|
|
#BPMCHANGE 217.17
|
|
#SCROLL 0.97
|
|
0,
|
|
|
|
#GOGOEND
|
|
3,
|
|
#BPMCHANGE 219.19
|
|
#SCROLL 0.96
|
|
0,
|
|
3,
|
|
#BPMCHANGE 215.38
|
|
#SCROLL 0.98
|
|
0,
|
|
11,
|
|
11,
|
|
#BPMCHANGE 217.31
|
|
#SCROLL 0.97
|
|
1,
|
|
#BPMCHANGE 213.94
|
|
#SCROLL 0.99
|
|
3,
|
|
#BPMCHANGE 219.91
|
|
#SCROLL 0.96
|
|
1,
|
|
#BPMCHANGE 213.94
|
|
#SCROLL 0.99
|
|
1,
|
|
#BPMCHANGE 211.34
|
|
#SCROLL 1
|
|
11,
|
|
#BPMCHANGE 218.17
|
|
#SCROLL 0.97
|
|
1,
|
|
2,
|
|
#BPMCHANGE 213.73
|
|
#SCROLL 0.99
|
|
2,
|
|
22,
|
|
#BPMCHANGE 222.28
|
|
#SCROLL 0.95
|
|
2,
|
|
#BPMCHANGE 219.62
|
|
#SCROLL 0.96
|
|
1,
|
|
#BPMCHANGE 215.68
|
|
#SCROLL 0.98
|
|
1,
|
|
12,
|
|
#BPMCHANGE 215.12
|
|
12,
|
|
1,
|
|
#BPMCHANGE 211.88
|
|
#SCROLL 1
|
|
1,
|
|
11,
|
|
#BPMCHANGE 215.61
|
|
#SCROLL 0.98
|
|
11,
|
|
#BPMCHANGE 206.72
|
|
#SCROLL 1.02
|
|
7,
|
|
0,
|
|
#BPMCHANGE 206.85
|
|
0,
|
|
#BPMCHANGE 211.88
|
|
#SCROLL 1
|
|
8,
|
|
#BPMCHANGE 210.67
|
|
2,
|
|
#BPMCHANGE 208.46
|
|
#SCROLL 1.01
|
|
2,
|
|
22,
|
|
22,
|
|
#BPMCHANGE 205.9
|
|
#SCROLL 1.03
|
|
7,
|
|
0,
|
|
#BPMCHANGE 208.68
|
|
#SCROLL 1.01
|
|
0,
|
|
#BPMCHANGE 213.94
|
|
#SCROLL 0.99
|
|
8,
|
|
#BPMCHANGE 210.22
|
|
#SCROLL 1
|
|
2,
|
|
2,
|
|
22,
|
|
#BPMCHANGE 211.75
|
|
22,
|
|
#BPMCHANGE 220.21
|
|
#SCROLL 0.96
|
|
3,
|
|
#BPMCHANGE 219.91
|
|
0,
|
|
#BPMCHANGE 210.13
|
|
#SCROLl 1.01
|
|
0,
|
|
#BPMCHANGE 219.04
|
|
#SCROLL 0.96
|
|
0,
|
|
#BPMCHANGE 211.88
|
|
#SCROLL 1
|
|
1,
|
|
#BPMCHANGE 215.47
|
|
#SCROLL 0.98
|
|
1,
|
|
#BPMCHANGE 213.66
|
|
#SCROLL 0.99
|
|
11,
|
|
#BPMCHANGE 216.46
|
|
#SCROLL 0.98
|
|
3,
|
|
|
|
#GOGOSTART
|
|
#BPMCHANGE 221.09
|
|
#SCROLL 0.96
|
|
1110,
|
|
#BPMCHANGE 212.16
|
|
#SCROLL 1
|
|
1110,
|
|
#BPMCHANGE 211.54
|
|
1,
|
|
0,
|
|
#BPMCHANGE 216.32
|
|
#SCROLL 0.98
|
|
1110,
|
|
#BPMCHANGE 212.98
|
|
#SCROLL 0.99
|
|
1110,
|
|
#BPMCHANGE 216.18
|
|
#SCROLL 0.98
|
|
1,
|
|
#BPMCHANGE 219.91
|
|
#SCROLL 0.96
|
|
0,
|
|
1110,
|
|
#BPMCHANGE 209.6
|
|
#SCROLL 1.01
|
|
1110,
|
|
#BPMCHANGE 212.43
|
|
#SCROLL 1
|
|
1,
|
|
#BPMCHANGE 219.04
|
|
#SCROLL 0.96
|
|
0,
|
|
#BPMCHANGE 217.31
|
|
#SCROLL 0.97
|
|
1110,
|
|
#BPMCHANGE 212.84
|
|
#SCROLL 0.99
|
|
1110,
|
|
#BPMCHANGE 214.56
|
|
1,
|
|
,
|
|
|
|
#GOGOEND
|
|
#BPMCHANGE 205.82
|
|
#SCROLL 1.03
|
|
3,
|
|
#BPMCHANGE 209.87
|
|
#SCROLL 1.01
|
|
33,
|
|
#BPMCHANGE 209.47
|
|
3,
|
|
#BPMCHANGE 216.18
|
|
#SCROLL 0.98
|
|
33,
|
|
#BPMCHANGE 211.14
|
|
#SCROLL 1
|
|
33,
|
|
#BPMCHANGE 211.51
|
|
33,
|
|
33,
|
|
#BPMCHANGE 208.81
|
|
#SCROLL 1.01
|
|
3033,
|
|
#BPMCHANGE 205
|
|
3,
|
|
|
|
|
|
#END
|
|
|