Files
2023-06-15 19:15:39 -05:00

230 lines
5.3 KiB
Plaintext

//TJADB Project
TITLE:Qiang Jun Ling
TITLEJA:將軍令
SUBTITLE:--Kenji Wu
SUBTITLEJA:吳克群
BPM:81
WAVE:Qiang Jun Ling.ogg
OFFSET:-7.131
DEMOSTART:7.131
COURSE:Oni
LEVEL:8
SCOREINIT:850
SCOREDIFF:200
#START
100200100200100000000000100200100200100000000000,
100020002000100020002000100010002000100000000000,
100020002000100020002000100010002000100000000000,
100000200100000100200200100000200100200200200000,
100200100200100000000000100200100200100000000000,
100020002000100020002000100010002000100000000000,
100020002000100020002000100010002000100000000000,
100000200100000100200200100000200100200200200000,
100000000100200000000200100010001000200000000000,
100010001000200000000200100010001000200000100100,
100000000100200000000200100010001000200000000000,
100000000100200000000200100010001000200200200200,
100000000100200020002000100010001000200010000000,
100000000100200020002000100010001000200000100000,
100000000100200020002000100010001000200010000000,
100010001000200000200100101010101010200200200000,
100200100200100000000000100200100200100000000000,
100020002000100020002000100010002000100000000000,
100020002000100020002000100010002000100000000000,
100000200100000100200200100000200100200200200000,
100200100200100000000000100200100200100000000000,
100020002000100020002000100010002000100000000000,
100020002000100020002000100010002000100000000000,
100000200100000100200200100000200100200200200000,
200100100200100100200000200100100200100100200000,
200100100200100100200100200100100200100100200000,
200100100200100100200000200100100200100100200000,
200100100200100100200100500000000000000008000000,
#GOGOSTART
100200100200100000000000100200100200100000000000,
100020002000100020002000100010002000100200200000,
100020002000100020002000100010002000100000000000,
100000200100000100200200100000200100200200200000,
100200100200100000000000100200100200100000000000,
100020002000100020002000100010002000100200200000,
100020002000100020002000100010002000100000000000,
100000200100000100200200100000200100000030000000,
#GOGOEND
#END
COURSE:Hard
LEVEL:5
BALLOON:8
SCOREINIT:820
SCOREDIFF:220
#START
1011100010111000,
111100111100,
222200222200,
1111100011111000,
1011100010111000,
111100111100,
222200222200,
1111100011111000,
1002200110002000,
1002200110002000,
1002200110002000,
1002200110111000,
1002200110002020,
1002200110002000,
1002200110002020,
1002200110111000,
1011100010111000,
111100111100,
222200222200,
1111100011111000,
1011100010111000,
111100111100,
222200222200,
1111100011111000,
500000000000000000000000000000000008000000000000,
7008,
500000000000000000000000000000000008000000000000,
10111000,
#GOGOSTART
1011102010111000,
111100111100,
222200222200,
1111100011111000,
1011102010111000,
111100111100,
222200222200,
1111100011111030,
#GOGOEND
#END
COURSE:Normal
LEVEL:5
BALLOON:6
SCOREINIT:1510
SCOREDIFF:500
#START
1011,
100100101100,
200200202200,
11,
1011,
100100101100,
200200202200,
11,
1212,
1011,
1212,
1011,
1122,
1011,
1122,
1011,
1011,
100100101100,
200200202200,
11,
1011,
100100101100,
200200202200,
11,
500000000000000000000000000000000008000000000000,
7008,
500000000000000000000000000000000008000000000000,
10111000,
#GOGOSTART
1011,
100100101100,
200200202200,
11,
1011,
100100101100,
200200202200,
10001003,
#GOGOEND
#END
COURSE:Easy
LEVEL:3
BALLOON:5
SCOREINIT:1210
SCOREDIFF:540
#START
100000000000000000000000100000000000000000000000,
100000000000100000000000100000000000000000000000,
100000000000100000000000100000000000000000000000,
100000000000000000000000100000000000000000000000,
100000000000000000000000100000000000000000000000,
100000000000100000000000100000000000000000000000,
100000000000100000000000100000000000000000000000,
100000000000000000000000100000000000000000000000,
100000000000100000000000000000000000100000000000,
100000000000100000000000000000000000100000000000,
100000000000100000000000000000000000100000000000,
000000000000100000000000000000000000100000000000,
100000000000100000000000000000000000100000000000,
100000000000100000000000000000000000100000000000,
100000000000100000000000000000000000100000000000,
100000000000000000000000100000000000100000000000,
100000000000000000000000100000000000000000000000,
100000000000100000000000100000000000000000000000,
100000000000100000000000100000000000000000000000,
100000000000000000000000100000000000000000000000,
100000000000000000000000100000000000000000000000,
100000000000100000000000100000000000000000000000,
100000000000100000000000100000000000000000000000,
100000000000000000000000100000000000000000000000,
500000000000000000000000000000000008000000000000,
700000000000000000000000000000000000800000000000,
500000000000000000000000000000000008000000000000,
100000000000100000000000100000000000000000000000,
#GOGOSTART
100000000000000000000000100000000000000000000000,
100000000000100000000000100000000000000000000000,
100000000000100000000000100000000000000000000000,
100000000000000000000000100000000000000000000000,
100000000000000000000000100000000000000000000000,
100000000000100000000000100000000000000000000000,
100000000000100000000000100000000000000000000000,
100000000000000000000000100000000000000000000000,
300000000000000000000000000000000000000000000000,
#GOGOEND
#END