Files
2023-06-15 19:15:39 -05:00

522 lines
17 KiB
Plaintext

//TJADB Project
TITLE:RESTART
TITLEJA:RESTART
SUBTITLE:--TOSHIMITSU
BPM:140
WAVE:RESTART.ogg
OFFSET:-2.079
DEMOSTART:87.775
COURSE:Oni
LEVEL:8
SCOREINIT:1810
SCOREDIFF:0
#START
1022202220221220,
1022202220201020,
1022202220221220,
1022202220201000,
1022202220221220,
1022202220201020,
1022202220221220,
1022202220201000,
2222202210122020,
1022201040004000,
1001001020121022,
1001001020112010,
1001001020121022,
1001001020112010,
1001001020121000,
500000000000000008000000500000000000000008000000,
500000000000000000000000000000000000000000000008,
#MEASURE 2/4
,
#SCROLL 0.75
#BPMCHANGE 280
#MEASURE 4/4
33,
#GOGOSTART
10210120,
10221120,
10210120,
11121120,
10210120,
10221120,
30030030,
11221122,
10210120,
10221120,
10210120,
11121120,
10210120,
10221120,
30030060,
000000000000000000000008000000000000000000000000,
#SCROLL 1
#BPMCHANGE 140
#GOGOEND
1001001000102100,
1012101000102100,
1001001000102100,
3000003000102100,
1001001000102100,
1012101000102100,
1001001000102100,
3010210040202100,
1120122011201220,
1002102010221220,
1120121011201210,
1002102010211120,
1220121012201210,
1002102010221220,
1210221012102210,
100000000200100000202020100000000200100000200000,
30212210,
10212210,
10211021,
1000202010221000,
10212210,
12221222,
1000101210121212,
#MEASURE 2/4
1,
#SCROLL 0.75
#BPMCHANGE 280
#MEASURE 4/4
44,
#GOGOSTART
10210120,
10221120,
10210120,
11121120,
10210120,
10221120,
30030030,
30221122,
10210120,
10221120,
500000000000000000000000000000000008000000000000,
500000000000000000000000000000000008000000000000,
6,
000000000000000000000000000000000008000000000000,
40040040,
30221122,
10210120,
10221120,
10210120,
11121120,
10210120,
10221120,
30030030,
30221122,
10210120,
10221120,
500000000000000000000000000000000008000000000000,
500000000000000000000000000000000008000000000000,
6,
,
,
000000000000000000000000000000000000000000000008,
#GOGOEND
,
,
#SCROLL 1.5
3,
#END
COURSE:Hard
LEVEL:4
BALLOON:15,15,28
SCOREINIT:4550
SCOREDIFF:0
#START
100000000000000000000000000000000000000000000000,
200000000000000000000000000000000000000000000000,
100000000000000000000000000000000000000000000000,
200000000000000000000000000000000000000000000000,
100000000000000000000000000000000000000000000000,
200000000000000000000000000000000000000000000000,
100000000000000000000000000000000000000000000000,
000000000000000000000000000000000000000000000000,
700000000000000000000000000000000000000000000000,
000000800000000000000000200000000000200000000000,
100000000100000000100000000000100000200000000000,
100000000100000000100000200000000000200000000000,
100000000100000000100000000000100000200000000000,
100000000100000000100000200000000000200000000000,
100000000100000000100000000000100000200000000000,
300000000000000000000000300000000000000000000000,
500000000000000000000000000000000000000000000080,
#MEASURE 2/4
000000000000000000000000,
#MEASURE 4/4
#BPMCHANGE 280
#SCROLL 0.75
300000000000000000000000300000000000000000000000,
#GOGOSTART
100000000000200000000000100000000000200000000000,
100000000000000000000000100000000000000000000000,
100000000000200000000000100000000000200000000000,
100000000000000000000000200000000000000000000000,
100000000000200000000000100000000000200000000000,
100000000000000000000000100000000000000000000000,
500000000000000000000000000000000000000000000000,
000000000080000000000000000000000000000000000000,
100000000000200000000000100000000000200000000000,
100000000000000000000000100000000000000000000000,
100000000000200000000000100000000000200000000000,
100000000000000000000000200000000000000000000000,
100000000000200000000000100000000000200000000000,
100000000000000000000000100000000000000000000000,
500000000000000000000000000000000000000000000000,
000000000080000000000000000000000000000000000000,
#BPMCHANGE 140
#SCROLL 1
#GOGOEND
100000000100000000100000000000100000200000000000,
100000000000000000200000000000100000200000000000,
100000000100000000100000000000100000200000000000,
300000000000000000300000000000000000000000000000,
100000000100000000100000000000100000200000000000,
100000000000000000200000000000100000200000000000,
100000000100000000100000000000100000200000000000,
300000000000000000000000400000000000000000000000,
100000000000100000000000100000000000100000200000,
100000000000100000000000100000000000200000100000,
100000000000100000000000100000000000100000200000,
100000000000100000000000100000000000200000100000,
100000000000100000000000100000000000100000200000,
100000000000100000000000100000000000100000200000,
100000000000100000000000100000000000200000100000,
100000000000000000000000000000000000200000000000,
300000000000000000200000000000000000200000000000,
100000000000000000200000000000000000200000000000,
100000000000000000000000000000000000200000000000,
100000000000000000000000200000000000200000000000,
100000000000000000200000000000000000200000000000,
300000000000000000000000300000000000000000000000,
600000000000000000000000000000000000000000000080,
#MEASURE 2/4
100000000000000000000000,
#MEASURE 4/4
#BPMCHANGE 280
#SCROLL 0.75
400000000000000000000000400000000000000000000000,
#GOGOSTART
100000000000200000000000100000000000200000000000,
100000000000000000000000100000000000200000000000,
100000000000000000000000100000000000200000000000,
100000000000200000000000100000000000000000000000,
100000000000200000000000100000000000200000000000,
100000000000000000000000100000000000200000000000,
500000000000000000000000000000000000000000000000,
000000000080000000000000000000000000000000000000,
100000000000200000000000100000000000200000000000,
100000000000000000000000100000000000200000000000,
500000000000000000000000000000000080000000000000,
500000000000000000000000000000000080000000000000,
900000000000000000000000000000000000000000000000,
000000000000000000000000000000000000000000000000,
800000000000000000000000000000000000000000000000,
000000000000000000000000000000000000000000000000,
100000000000200000000000100000000000200000000000,
100000000000000000000000100000000000200000000000,
100000000000000000000000100000000000200000000000,
100000000000200000000000100000000000000000000000,
100000000000200000000000100000000000200000000000,
100000000000000000000000100000000000200000000000,
500000000000000000000000000000000000000000000000,
000000000080000000000000000000000000000000000000,
100000000000200000000000100000000000200000000000,
100000000000000000000000100000000000200000000000,
500000000000000000000000000000000080000000000000,
500000000000000000000000000000000080000000000000,
900000000000000000000000000000000000000000000000,
000000000000000000000000000000000000000000000000,
000000000000000000000000000000000000000000000000,
000000000000000000000000000000000000000000000000,
#GOGOEND
800000000000000000000000000000000000000000000000,
000000000000000000000000000000000000000000000000,
#SCROLL 1.5
300000000000000000000000000000000000000000000000,
#END
COURSE:Normal
LEVEL:3
BALLOON:15,10,20
SCOREINIT:9990
SCOREDIFF:0
#START
100000000000000000000000000000000000000000000000,
200000000000000000000000000000000000000000000000,
100000000000000000000000000000000000000000000000,
200000000000000000000000000000000000000000000000,
100000000000000000000000000000000000000000000000,
200000000000000000000000000000000000000000000000,
100000000000000000000000000000000000000000000000,
000000000000000000000000000000000000000000000000,
700000000000000000000000000000000000000000000000,
000000000000000000800000000000000000000000000000,
300000000000000000000000000000000000000000000000,
100000000000000000000000200000000000200000000000,
300000000000000000000000000000000000000000000000,
100000000000000000000000200000000000200000000000,
300000000000000000000000000000000000000000000000,
300000000000000000000000300000000000000000000000,
500000000000000000000000000000000000000000000080,
#MEASURE 2/4
000000000000000000000000,
#MEASURE 4/4
#BPMCHANGE 280
#SCROLL 0.75
000000000000000000000000000000000000000000000000,
#GOGOSTART
100000000000000000000000000000000000000000000000,
100000000000000000000000000000000000000000000000,
100000000000000000000000100000000000000000000000,
100000000000000000000000000000000000000000000000,
100000000000000000000000000000000000000000000000,
100000000000000000000000000000000000000000000000,
500000000000000000000000000000000000000000000000,
000000000080000000000000000000000000000000000000,
100000000000000000000000000000000000000000000000,
100000000000000000000000000000000000000000000000,
100000000000000000000000100000000000000000000000,
100000000000000000000000000000000000000000000000,
100000000000000000000000000000000000000000000000,
100000000000000000000000000000000000000000000000,
500000000000000000000000000000000000000000000000,
000000000080000000000000000000000000000000000000,
#BPMCHANGE 140
#SCROLL 1
#GOGOEND
100000000000000000000000000000000000000000000000,
100000000000000000000000000000000000200000000000,
100000000000000000000000000000000000000000000000,
300000000000000000300000000000000000000000000000,
100000000000000000000000000000000000000000000000,
100000000000000000000000000000000000200000000000,
100000000000000000000000000000000000000000000000,
300000000000000000000000300000000000000000000000,
100000000000000000000000100000000000100000000000,
100000000000000000000000000000000000200000000000,
100000000000000000000000100000000000100000000000,
100000000000000000000000000000000000200000000000,
100000000000000000000000100000000000100000000000,
100000000000000000000000000000000000200000000000,
100000000000000000000000100000000000100000000000,
100000000000000000000000000000000000200000000000,
300000000000000000000000000000000000200000000000,
200000000000000000000000000000000000200000000000,
100000000000000000000000000000000000200000000000,
200000000000000000000000000000000000200000000000,
100000000000000000000000000000000000200000000000,
300000000000000000000000300000000000000000000000,
600000000000000000000000000000000000000000000080,
#MEASURE 2/4
100000000000000000000000,
#MEASURE 4/4
#BPMCHANGE 280
#SCROLL 0.75
000000000000000000000000000000000000000000000000,
#GOGOSTART
100000000000000000000000000000000000000000000000,
200000000000000000000000000000000000000000000000,
100000000000000000000000100000000000000000000000,
100000000000000000000000100000000000000000000000,
100000000000000000000000000000000000000000000000,
200000000000000000000000000000000000000000000000,
300000000000000000000000000000000000000000000000,
000000000000000000000000000000000000000000000000,
100000000000000000000000000000000000000000000000,
100000000000000000000000000000000000000000000000,
500000000000000000000000000000000080000000000000,
500000000000000000000000000000000080000000000000,
900000000000000000000000000000000000000000000000,
000000000000000000000000000000000000000000000000,
800000000000000000000000000000000000000000000000,
000000000000000000000000000000000000000000000000,
100000000000000000000000000000000000000000000000,
200000000000000000000000000000000000000000000000,
100000000000000000000000100000000000000000000000,
100000000000000000000000100000000000000000000000,
100000000000000000000000000000000000000000000000,
200000000000000000000000000000000000000000000000,
300000000000000000000000000000000000000000000000,
000000000000000000000000000000000000000000000000,
100000000000000000000000000000000000000000000000,
100000000000000000000000000000000000000000000000,
500000000000000000000000000000000080000000000000,
500000000000000000000000000000000080000000000000,
900000000000000000000000000000000000000000000000,
000000000000000000000000000000000000000000000000,
000000000000000000000000000000000000000000000000,
000000000000000000000000000000000000000000000000,
#GOGOEND
800000000000000000000000000000000000000000000000,
000000000000000000000000000000000000000000000000,
#SCROLL 1.5
300000000000000000000000000000000000000000000000,
#END
COURSE:Easy
LEVEL:2
BALLOON:12,8,16
SCOREINIT:12410
SCOREDIFF:0
#START
100000000000000000000000000000000000000000000000,
100000000000000000000000000000000000000000000000,
100000000000000000000000000000000000000000000000,
200000000000000000000000000000000000000000000000,
100000000000000000000000000000000000000000000000,
100000000000000000000000000000000000000000000000,
100000000000000000000000000000000000000000000000,
000000000000000000000000000000000000000000000000,
700000000000000000000000000000000000000000000000,
000000000000000000800000000000000000000000000000,
300000000000000000000000000000000000000000000000,
100000000000000000000000100000000000000000000000,
300000000000000000000000000000000000000000000000,
100000000000000000000000100000000000000000000000,
300000000000000000000000000000000000000000000000,
300000000000000000000000300000000000000000000000,
500000000000000000000000000000000000000000000080,
#MEASURE 2/4
000000000000000000000000,
#MEASURE 4/4
#BPMCHANGE 280
#SCROLL 0.75
000000000000000000000000000000000000000000000000,
#GOGOSTART
100000000000000000000000000000000000000000000000,
100000000000000000000000000000000000000000000000,
100000000000000000000000000000000000000000000000,
000000000000000000000000000000000000000000000000,
100000000000000000000000000000000000000000000000,
100000000000000000000000000000000000000000000000,
500000000000000000000000000000000000000000000000,
000000000080000000000000000000000000000000000000,
100000000000000000000000000000000000000000000000,
100000000000000000000000000000000000000000000000,
100000000000000000000000000000000000000000000000,
000000000000000000000000000000000000000000000000,
100000000000000000000000000000000000000000000000,
100000000000000000000000000000000000000000000000,
500000000000000000000000000000000000000000000000,
000000000080000000000000000000000000000000000000,
#BPMCHANGE 140
#SCROLL 1
#GOGOEND
100000000000000000000000000000000000000000000000,
100000000000000000000000000000000000000000000000,
100000000000000000000000000000000000000000000000,
300000000000000000300000000000000000000000000000,
100000000000000000000000000000000000000000000000,
100000000000000000000000000000000000000000000000,
100000000000000000000000000000000000000000000000,
300000000000000000000000300000000000000000000000,
100000000000000000000000100000000000000000000000,
100000000000000000000000000000000000000000000000,
100000000000000000000000100000000000000000000000,
100000000000000000000000000000000000000000000000,
100000000000000000000000100000000000000000000000,
100000000000000000000000000000000000000000000000,
100000000000000000000000100000000000000000000000,
100000000000000000000000000000000000000000000000,
300000000000000000000000000000000000000000000000,
200000000000000000000000000000000000000000000000,
100000000000000000000000000000000000000000000000,
200000000000000000000000000000000000000000000000,
100000000000000000000000000000000000000000000000,
300000000000000000000000300000000000000000000000,
600000000000000000000000000000000000000000000080,
#MEASURE 2/4
100000000000000000000000,
#MEASURE 4/4
#BPMCHANGE 280
#SCROLL 0.75
000000000000000000000000000000000000000000000000,
#GOGOSTART
100000000000000000000000000000000000000000000000,
100000000000000000000000000000000000000000000000,
100000000000000000000000000000000000000000000000,
100000000000000000000000100000000000000000000000,
100000000000000000000000000000000000000000000000,
100000000000000000000000000000000000000000000000,
300000000000000000000000000000000000000000000000,
000000000000000000000000000000000000000000000000,
100000000000000000000000000000000000000000000000,
100000000000000000000000000000000000000000000000,
300000000000000000000000000000000000000000000000,
300000000000000000000000000000000000000000000000,
900000000000000000000000000000000000000000000000,
000000000000000000000000000000000000000000000000,
800000000000000000000000000000000000000000000000,
000000000000000000000000000000000000000000000000,
100000000000000000000000000000000000000000000000,
100000000000000000000000000000000000000000000000,
100000000000000000000000000000000000000000000000,
100000000000000000000000100000000000000000000000,
100000000000000000000000000000000000000000000000,
100000000000000000000000000000000000000000000000,
300000000000000000000000000000000000000000000000,
000000000000000000000000000000000000000000000000,
100000000000000000000000000000000000000000000000,
100000000000000000000000000000000000000000000000,
300000000000000000000000000000000000000000000000,
300000000000000000000000000000000000000000000000,
900000000000000000000000000000000000000000000000,
000000000000000000000000000000000000000000000000,
000000000000000000000000000000000000000000000000,
000000000000000000000000000000000000000000000000,
#GOGOEND
800000000000000000000000000000000000000000000000,
000000000000000000000000000000000000000000000000,
#SCROLL 1.5
300000000000000000000000000000000000000000000000,
#END