Files
2023-06-15 19:15:39 -05:00

331 lines
13 KiB
Plaintext
Raw Permalink Blame History

This file contains ambiguous Unicode characters
This file contains Unicode characters that might be confused with other characters. If you think that this is intentional, you can safely ignore this warning. Use the Escape button to reveal them.
//TJADB Project
TITLE:Roppongi ~GIROPPON~
TITLEJA:六本木~GIROPPON~
SUBTITLE:--Nezumi Senpai
BPM:165
WAVE:Roppongi ~GIROPPON~.ogg
OFFSET:-1.673
DEMOSTART:70.193
COURSE:Oni
LEVEL:5
SCOREINIT:820
SCOREDIFF:190
#START
100000000000100000100000000000000000200000000000,
100000000000000000100000000000200000200000000000,
100000000000100000100000000000000000200000000000,
100000000000000000100000000000200000200000000000,
100000000000100000100000000000000000200000000000,
100000000000000000100000000000200000200000000000,
100000000000100000100000000000000000200000000000,
100000100000200000000000100000100100200000200000,
100000000000200000100000000000100000200000000000,
100000000000200000100000100000000000200000000000,
100000000000200000100000000000100000200000000000,
100000000000200000100000100000100000200000100100,
100000000000000000200200200000000000000000100100,
100000000000000000200200200000000000200000000000,
500000000000000000000000000000000000000008000000,
300000000000100000000000000000000000000000000000,
100000000000100000000000100000100000000000000000,
100000000000100000000000100000200000000000000000,
100000000000100000000000100000000000100000200000,
000000000000200000000000000000000000200000000000,
100000000000100000000000100000100000000000000000,
100000000000100000000000100000200000000000000000,
100000000000100000000000100000000000100000200000,
000000000000200000000000000000000000200000000000,
100000000000100000100000000000100000200000000000,
100000000000100000100000000000100000200000000000,
100000000000100000200000000000100000200000200000,
100000000000200000000000000000000000200000000000,
100000000000100000200000000000100000200000000000,
100000000000100000200000000000100000200000200000,
100000000000000000000000000000000000300000000000,
300000000000000000000000100000100100100000100000,
100000000000200000000000100000100000200000000000,
100000100000200000100000000000100000200000000000,
300000000000300000000000200000200200200000000000,
300000000000300000000000000000000000000000000000,
100000000000200000000000100000100000200000000000,
100000100000200000100000000000100000200000000000,
300000000000300000000000200000200200200000000000,
300000000000300000000000000000000000000000000000,
100000000000200000000000100000100000200000000000,
100000100000200000100000000000100000200000000000,
100100100000200000000000100100100000200000000000,
100000100000200000100000000000100000200000000000,
100000000000200000000000100000100000200000000000,
100000100000200000100000000000100000200000000000,
100000100100100000100100100000100100100000100000,
300000000000000000000000000000000000000000000000,
#GOGOSTART
100000000000200000100000000000100100200000000000,
100000000000200000100000000000100100200000000000,
100000000000200000100000000000100100200000000000,
100000000000200000100000000000100000200000000000,
100000100100200000100000000000200200200000000000,
100000100100200000100000000000200200200000000000,
300000000000300000000000300000300000000000300000,
000000100100100000100100100000100100100000100100,
100000000000200000100000000000100100200000200000,
100000000000200000100000000000100100200000200000,
100000000000200000100000000000100100200000200000,
100000000000200000100000000000100100100100100000,
100000001000000010000000100000001000100010000000,
100000001000000010000000100000001000100010000000,
500000000000000000000000000008000000300000000000,
300000000000000000000000000000000000000000000000,
#GOGOEND
#END
COURSE:Hard
LEVEL:5
SCOREINIT:930
SCOREDIFF:250
#START
100000000000000000100000100000000000200000000000,
100000000000000000100000000000000000100000000000,
100000000000000000100000100000000000200000000000,
100000000000000000100000000000000000100000000000,
100000000000000000100000100000000000200000000000,
100000000000000000100000000000000000100000000000,
100000000000000000100000100000000000200000000000,
100000000000200000000000200000000000000000000000,
100000000000000000100000100000000000200000000000,
100000000000000000100000000000000000100000000000,
100000000000000000100000100000000000200000000000,
100000000000000000100000000000000000000000100100,
100000000000000000000000000000000000000000100100,
100000000000000000100000000000000000100000000000,
500000000000000000000000000000000000000800000000,
100000000000100000000000000000000000000000000000,
100000000000000000000000100000100000000000000000,
100000000000000000000000100000100000000000000000,
100000000000000000000000100000100000000000100000,
000000000000000000000000200000000000200000000000,
100000000000100000000000100000100000000000000000,
100000000000100000000000100000100000000000000000,
100000000000100000000000100000100000000000100000,
000000000000000000000000200000000000200000000000,
100000000000000000000000100000100000000000000000,
100000000000000000000000100000100000000000000000,
100000000000000000000000100000100000000000100000,
000000000000200000000000000000100000000000100000,
100000000000200000000000000000100000000000100000,
100000000000200000000000000000100000000000100000,
100000000000200000000000000000000000300000000000,
300000000000000000000000200000200000200000000000,
100000000000200000000000100000000000200000000000,
100000000000200000000000100000100000200000000000,
300000000000300000000000000000000000000000000000,
000000000000000000000000000000000000000000000000,
100000000000200000000000100000000000200000000000,
100000000000200000000000100000100000200000000000,
300000000000300000000000000000000000000000000000,
000000000000000000000000000000000000000000000000,
100000000000200000000000100000100000200000000000,
100000000000200000000000100000000000000000000000,
100000000000200000000000100000100000200000000000,
100000000000200000000000100000000000000000000000,
100000000000200000000000100000100000200000000000,
100000000000200000000000100000100000200000000000,
100000100000100000100000100000100000100000100000,
300000000000000000000000000000000000000000000000,
#GOGOSTART
100000000000200000100000000000100000200000000000,
100000000000200000100000000000100000200000000000,
100000000000200000100000000000100000200000000000,
100000000000000000000000200000000000200000000000,
100000000000200000100000000000100000200000000000,
100000000000200000100000000000100000200000000000,
300000000000300000000000300000300000000000300000,
000000000000000000000000000000000000000000000000,
100000000000200000100000000000100000200000000000,
100000000000200000100000000000100000200000000000,
100000000000200000100000000000100000200000000000,
100000000000000000000000200000000000200000000000,
100000001000000010000000100000001000000010000000,
100000001000000010000000100000001000000010000000,
500000000000000000000000000800000000300000000000,
300000000000000000000000000000000000000000000000,
#GOGOEND
#END
COURSE:Normal
LEVEL:4
SCOREINIT:1060
SCOREDIFF:340
#START
100000000000000000000000100000000000000000000000,
100000000000100000000000100000000000000000000000,
100000000000000000000000100000000000000000000000,
100000000000100000000000100000000000000000000000,
100000000000000000000000100000000000000000000000,
100000000000100000000000100000000000000000000000,
100000000000000000000000100000000000000000000000,
200000000000200000000000200000000000000000000000,
100000000000000000000000100000000000000000000000,
100000000000100000000000100000000000000000000000,
100000000000000000000000100000000000000000000000,
100000000000100000000000100000000000000000000000,
300000000000000000000000300000000000000000000000,
400000000000000000000000400000000000000000000000,
500000000000000000000000000000000000000000800000,
000000000000000000000000000000000000000000000000,
100000000000000000000000100000000000000000000000,
100000000000100000000000100000000000000000000000,
100000000000000000000000100000000000000000000000,
100000000000000000000000000000000000000000000000,
100000000000000000000000100000000000000000000000,
100000000000100000000000100000000000000000000000,
100000000000000000000000100000000000000000000000,
100000000000000000000000000000000000000000000000,
100000000000000000000000100000000000000000000000,
100000000000100000000000100000000000000000000000,
100000000000000000000000100000000000000000000000,
100000000000000000000000000000000000100000000000,
100000000000000000000000000000000000100000000000,
100000000000000000000000100000000000000000000000,
100000000000000000000000000000000000300000000000,
300000000000000000000000000000000000000000000000,
100000000000100000000000200000000000000000000000,
100000000000100000000000200000000000000000000000,
300000000000300000000000000000000000000000000000,
000000000000000000000000000000000000000000000000,
100000000000100000000000200000000000000000000000,
100000000000100000000000200000000000000000000000,
300000000000300000000000000000000000000000000000,
000000000000000000000000000000000000000000000000,
100000000000100000000000100000000000000000000000,
100000000000100000000000100000000000000000000000,
100000000000100000000000200000000000000000000000,
100000000000100000000000200000000000000000000000,
100000000000100000000000100000000000000000000000,
100000000000100000000000100000000000000000000000,
500000000000000000000000000000000000000000800000,
000000000000000000000000000000000000000000000000,
#GOGOSTART
100000000000100000000000100000000000000000000000,
100000000000100000000000100000000000000000000000,
100000000000100000000000100000000000100000000000,
100000000000000000000000200000000000000000000000,
100000000000100000000000100000000000000000000000,
100000000000100000000000100000000000000000000000,
100000000000100000000000100000100000000000100000,
000000000000000000000000000000000000000000000000,
100000000000100000000000100000000000000000000000,
100000000000100000000000100000000000000000000000,
100000000000100000000000100000000000100000000000,
100000000000000000000000000000000000000000000000,
000010000000100000100000100000000000000000000000,
000010000000100000100000100000000000000000000000,
500000000000000000800000000000000000300000000000,
300000000000000000000000000000000000000000000000,
#GOGOEND
#END
COURSE:Easy
LEVEL:4
SCOREINIT:800
SCOREDIFF:280
#START
300000000000000000000000000000000000000000000000,
100000000000000000000000100000000000000000000000,
100000000000000000000000000000000000000000000000,
100000000000000000000000100000000000000000000000,
100000000000000000000000000000000000000000000000,
100000000000000000000000100000000000000000000000,
100000000000000000000000000000000000000000000000,
100000000000000000000000100000000000000000000000,
100000000000000000000000000000000000000000000000,
100000000000000000000000100000000000000000000000,
100000000000000000000000000000000000000000000000,
100000000000000000000000100000000000000000000000,
100000000000000000000000000000000000000000000000,
300000000000000000000000300000000000000000000000,
500000000000000000000000000000000000000000800000,
000000000000000000000000000000000000000000000000,
100000000000000000000000100000000000000000000000,
100000000000000000000000100000000000000000000000,
100000000000100000000000100000000000000000000000,
100000000000000000000000000000000000000000000000,
100000000000000000000000100000000000000000000000,
100000000000000000000000100000000000000000000000,
100000000000100000000000100000000000000000000000,
100000000000000000000000000000000000000000000000,
100000000000000000000000100000000000000000000000,
100000000000000000000000100000000000000000000000,
100000000000100000000000100000000000000000000000,
100000000000000000000000000000000000000000000000,
100000000000000000000000100000000000000000000000,
100000000000000000000000100000000000000000000000,
100000000000000000000000000000000000100000000000,
100000000000000000000000000000000000000000000000,
200000000000000000000000200000000000000000000000,
200000000000000000000000200000000000000000000000,
300000000000300000000000000000000000000000000000,
000000000000000000000000000000000000000000000000,
200000000000000000000000200000000000000000000000,
200000000000000000000000200000000000000000000000,
300000000000300000000000000000000000000000000000,
000000000000000000000000000000000000000000000000,
100000000000000000000000100000000000000000000000,
100000000000100000000000100000000000000000000000,
100000000000000000000000100000000000000000000000,
100000000000100000000000100000000000000000000000,
100000000000000000000000100000000000000000000000,
100000000000100000000000100000000000000000000000,
500000000000000000000000000000000000000000800000,
000000000000000000000000000000000000000000000000,
#GOGOSTART
100000000000100000000000100000000000000000000000,
100000000000100000000000100000000000000000000000,
100000000000100000000000100000000000100000000000,
100000000000000000000000000000000000000000000000,
100000000000100000000000100000000000000000000000,
100000000000100000000000100000000000000000000000,
300000000000000000000000300000000000000000000000,
300000000000000000000000000000000000000000000000,
100000000000100000000000100000000000000000000000,
100000000000100000000000100000000000000000000000,
100000000000100000000000100000000000100000000000,
100000000000000000000000000000000000000000000000,
300000000000000000000000300000000000000000000000,
300000000000000000000000300000000000000000000000,
300000000000000000000000000000000000300000000000,
300000000000000000000000000000000000000000000000,
#GOGOEND
#END