forked from ESE/ESE
402 lines
11 KiB
Plaintext
402 lines
11 KiB
Plaintext
//TJADB Project
|
||
TITLE:Seesaw Game ~Brave Love Song~
|
||
TITLEJA:シーソーゲーム
|
||
SUBTITLE:--Mr. Children
|
||
SUBTITLEJA:〜勇敢な恋の歌〜
|
||
BPM:135.985
|
||
WAVE:Seesaw Game ~Brave Love Song~.ogg
|
||
OFFSET:-2.962
|
||
DEMOSTART:57.673
|
||
|
||
COURSE:Oni
|
||
LEVEL:5
|
||
|
||
STYLE:Double
|
||
BALLOON:10
|
||
|
||
|
||
#START P1
|
||
|
||
|
||
300000000000000000000000000000000000000000000000,
|
||
000000100000000000100000100000000100000000100000,
|
||
100000000000200000000000100000000000200000000000,
|
||
100000000000100000000000100000000000100000000000,
|
||
300000000000000000000000000000000000000000000000,
|
||
000000100000000000100000100000000100000000100000,
|
||
100000000000200000000000100000000000200000000000,
|
||
100000000000100000000000100000000000100000000000,
|
||
300000000000000000200000000000000000000000200000,
|
||
000000100100100000000000100100100000200000000000,
|
||
100100100000100000000000100100100000200000000000,
|
||
100100100000100000100000100100100000200000000000,
|
||
000000000000100100100000100000100000100000000000,
|
||
100000100000100100100000100100100000200000000000,
|
||
100000200000100000200000100100100000200000200000,
|
||
100000200000100000200000100100100000100100100000,
|
||
300000000000100000000000000000100000000000000000,
|
||
700000000000000000000000000000000000800000000000,
|
||
100100100000100000000000100100100000200000000000,
|
||
100100100000100000100000100100100000200000000000,
|
||
200000000000100100100000100000100000100000000000,
|
||
100000100000100100100000100100100000200000000000,
|
||
100000200000100000200000100100100000200000200000,
|
||
100000200000100000200000100100100000100000100000,
|
||
300000000000100000000000000000100000000000000000,
|
||
500000000000000008000000100100200200200000000000,
|
||
100000000000200000200000100100100000200000200000,
|
||
100000000000200000200000100100100000200000200000,
|
||
100000000000200000200000100100100000200000200000,
|
||
100000100100100000100100100000100100100000100000,
|
||
500000000000000000000000000000000008000000000000,
|
||
3330,
|
||
1020102011101110,
|
||
4440,
|
||
1011101110111011,
|
||
100000100100100000200000100100100000200000200000,
|
||
100000100100100000200000100100100000200000200000,
|
||
100000100100100000200000100100100000200000200000,
|
||
100100100000200000100100100000200000100100100000,
|
||
3330,
|
||
1020102011101110,
|
||
4440,
|
||
1011101110111011,
|
||
100000100100100000200000100100100000200000200000,
|
||
100000100100100000200000100100100000200000200000,
|
||
500000000000000000000000000000000008000000000000,
|
||
100000000100000000100000100000000100000000100000,
|
||
300000000000000000000000000000000000000000000000,
|
||
|
||
|
||
#END
|
||
|
||
|
||
#START P2
|
||
|
||
|
||
300000000000000000000000000000000000000000000000,
|
||
000000100000000000100000100000000100000000100000,
|
||
100000000000200000000000100000000000200000000000,
|
||
100000000000100000000000100000000000100000000000,
|
||
300000000000000000000000000000000000000000000000,
|
||
000000100000000000100000100000000100000000100000,
|
||
100000000000200000000000100000000000200000000000,
|
||
100000000000100000000000100000000000100000000000,
|
||
300000000000000000200000000000000000000000200000,
|
||
000000100100100000000000100100100000200000000000,
|
||
100100100000100000000000100100100000200000000000,
|
||
100100100000100000100000100100100000200000000000,
|
||
000000000000100100100000100000100000100000000000,
|
||
100000100000100100100000100100100000200000000000,
|
||
100000200000100000200000100100100000200000200000,
|
||
100000200000100000200000100100100000100100100000,
|
||
300000000000100000000000000000100000000000000000,
|
||
700000000000000000000000000000000000800000000000,
|
||
100100100000100000000000100100100000200000000000,
|
||
100100100000100000100000100100100000200000000000,
|
||
200000000000100100100000100000100000100000000000,
|
||
100000100000100100100000100100100000200000000000,
|
||
100000200000100000200000100100100000200000200000,
|
||
100000200000100000200000100100100000100000100000,
|
||
300000000000100000000000000000100000000000000000,
|
||
500000000000000008000000100100200200200000000000,
|
||
100000000000200000200000100100100000200000200000,
|
||
100000000000200000200000100100100000200000200000,
|
||
100000000000200000200000100100100000200000200000,
|
||
100000100100100000100100100000100100100000100000,
|
||
500000000000000000000000000000000008000000000000,
|
||
4440,
|
||
1020102011101110,
|
||
3330,
|
||
1011101110111011,
|
||
100000100100100000200000100100100000200000200000,
|
||
100000100100100000200000100100100000200000200000,
|
||
100000100100100000200000100100100000200000200000,
|
||
100100100000200000100100100000200000100100100000,
|
||
4440,
|
||
1020102011101110,
|
||
3330,
|
||
1011101110111011,
|
||
100000100100100000200000100100100000200000200000,
|
||
100000100100100000200000100100100000200000200000,
|
||
500000000000000000000000000000000008000000000000,
|
||
100000000100000000100000100000000100000000100000,
|
||
300000000000000000000000000000000000000000000000,
|
||
|
||
|
||
#END
|
||
|
||
|
||
COURSE:Hard
|
||
LEVEL:3
|
||
BALLOON:5,5,5
|
||
SCOREINIT:790
|
||
SCOREDIFF:200
|
||
|
||
|
||
#START
|
||
|
||
|
||
3,
|
||
0212,
|
||
11,
|
||
1212,
|
||
3,
|
||
0212,
|
||
11,
|
||
1111,
|
||
3,
|
||
,
|
||
|
||
#BRANCHSTART p,75,90
|
||
#N
|
||
1212,
|
||
10111020,
|
||
00101110,
|
||
11111020,
|
||
10101220,
|
||
10101220,
|
||
3,
|
||
70000800,
|
||
1212,
|
||
10111020,
|
||
00101110,
|
||
11111020,
|
||
10101220,
|
||
10101220,
|
||
3,
|
||
500000000000000008000000100000100000100000100000,
|
||
10221020,
|
||
10221020,
|
||
10221020,
|
||
1111,
|
||
500000000000000000000000000000000008000000000000,
|
||
3330,
|
||
12121010,
|
||
4440,
|
||
1011101110111011,
|
||
1000100011102000,
|
||
1000100011102000,
|
||
1000100011102000,
|
||
1110201110201000,
|
||
3330,
|
||
12121010,
|
||
4440,
|
||
1011101110111011,
|
||
1000100011102000,
|
||
1000100011102000,
|
||
500000000000000000000000000000000008000000000000,
|
||
1001001010010010,
|
||
3,
|
||
|
||
#E
|
||
1212,
|
||
11111020,
|
||
00111110,
|
||
11111010,
|
||
10101220,
|
||
10101220,
|
||
30100100,
|
||
70000800,
|
||
1212,
|
||
11111020,
|
||
00111110,
|
||
11111010,
|
||
10101220,
|
||
10101220,
|
||
30100100,
|
||
500000000000000008000000100000100000100000100000,
|
||
10221020,
|
||
10221020,
|
||
10221020,
|
||
11111110,
|
||
500000000000000000000000000000000008000000000000,
|
||
3330,
|
||
12121010,
|
||
4440,
|
||
1011101110111011,
|
||
1010200011102000,
|
||
1010200011102000,
|
||
1010200011102000,
|
||
1110201110201000,
|
||
3330,
|
||
12121010,
|
||
4440,
|
||
1011101110111011,
|
||
1010200011102000,
|
||
1010200011102000,
|
||
500000000000000000000000000000000008000000000000,
|
||
1001001010010010,
|
||
3,
|
||
|
||
#M
|
||
1212,
|
||
11111020,
|
||
00111112,
|
||
11111020,
|
||
1020102011102000,
|
||
1020102011102000,
|
||
30100100,
|
||
70000800,
|
||
1212,
|
||
11111020,
|
||
00111112,
|
||
11111020,
|
||
1020102011102000,
|
||
1020102011102000,
|
||
30100100,
|
||
500000000000000008000000100000100000100000100000,
|
||
1000202010002011,
|
||
1000202010002011,
|
||
1000202010002011,
|
||
1011101110111011,
|
||
500000000000000000000000000000000008000000000000,
|
||
3330,
|
||
1020102011102000,
|
||
4440,
|
||
1011101110111011,
|
||
1010200011102000,
|
||
1110202011102000,
|
||
1110202011102000,
|
||
1110201110201110,
|
||
3330,
|
||
1020102011102000,
|
||
4440,
|
||
1011101110111011,
|
||
1010200011102000,
|
||
1110202011102000,
|
||
500000000000000000000000000000000008000000000000,
|
||
1001001010010010,
|
||
3,
|
||
|
||
#BRANCHEND
|
||
|
||
|
||
#END
|
||
|
||
|
||
COURSE:Normal
|
||
LEVEL:2
|
||
BALLOON:10
|
||
SCOREINIT:1370
|
||
SCOREDIFF:480
|
||
|
||
|
||
#START
|
||
|
||
|
||
300000000000000000000000000000000000000000000000,
|
||
000000000000000000000000100000000000000000000000,
|
||
100000000000000000000000100000000000000000000000,
|
||
100000000000000000000000100000000000100000000000,
|
||
300000000000000000000000000000000000000000000000,
|
||
000000000000000000000000100000000000000000000000,
|
||
100000000000000000000000100000000000000000000000,
|
||
100000000000000000000000100000000000000000000000,
|
||
300000000000000000000000000000000000000000000000,
|
||
000000000000000000000000000000000000000000000000,
|
||
100000000000200000000000100000000000200000000000,
|
||
100000000000100000000000100000000000200000000000,
|
||
000000000000100000000000100000100000100000000000,
|
||
100000100000100000000000200000000000000000000000,
|
||
100000000000100000000000100000000000000000000000,
|
||
100000000000100000000000100000000000000000000000,
|
||
300000000000000000000000000000000000000000000000,
|
||
500000000000000000000000000000800000000000000000,
|
||
100000000000200000000000100000000000200000000000,
|
||
100000000000100000000000100000000000200000000000,
|
||
000000000000100000000000100000100000100000000000,
|
||
100000100000100000000000200000000000000000000000,
|
||
100000000000100000000000100000000000000000000000,
|
||
100000000000100000000000100000000000000000000000,
|
||
300000000000000000000000000000000000000000000000,
|
||
500000000000000000000000000000800000000000000000,
|
||
100000000000200000200000100000000000200000000000,
|
||
100000000000200000200000100000000000200000000000,
|
||
100000000000200000200000100000000000200000000000,
|
||
100000000000100000000000100000000000100000000000,
|
||
100000000000100000000000100000000000100000000000,
|
||
300000000000300000000000300000000000000000000000,
|
||
100000000000100000000000200000000000200000000000,
|
||
300000000000300000000000300000000000000000000000,
|
||
500000000000000000000000000000000000000000000000,
|
||
000000800000000000000000100000100000100000000000,
|
||
100000000000000000000000200000000000200000000000,
|
||
000000000000000000000000100000100000100000000000,
|
||
100000000000000000000000200000000000200000000000,
|
||
300000000000300000000000300000000000000000000000,
|
||
100000000000100000000000200000200000200000000000,
|
||
300000000000300000000000300000000000000000000000,
|
||
500000000000000000000000000000000000000000000000,
|
||
000000800000000000000000100000100000100000000000,
|
||
100000000000000000000000200000000000200000000000,
|
||
500000000000000000000000000000800000000000000000,
|
||
100000000000000000000000100000000000000000000000,
|
||
700000000000000000000000000000000000000000000008,
|
||
|
||
|
||
#END
|
||
|
||
|
||
COURSE:Easy
|
||
LEVEL:5
|
||
SCOREINIT:1510
|
||
SCOREDIFF:660
|
||
|
||
|
||
#START
|
||
|
||
|
||
300000000000000000000000000000000000000000000000,
|
||
000000000000000000000000000000000000000000000000,
|
||
100000000000000000000000100000000000000000000000,
|
||
100000000000000000000000100000000000000000000000,
|
||
300000000000000000000000000000000000000000000000,
|
||
000000000000000000000000000000000000000000000000,
|
||
100000000000000000000000100000000000000000000000,
|
||
100000000000000000000000100000000000000000000000,
|
||
300000000000000000000000000000000000000000000000,
|
||
000000000000000000000000000000000000000000000000,
|
||
100000000000000000000000100000000000000000000000,
|
||
100000000000100000000000100000000000200000000000,
|
||
000000000000100000000000100000000000100000000000,
|
||
200000000000200000000000200000000000000000000000,
|
||
100000000000100000000000100000000000000000000000,
|
||
100000000000100000000000100000000000000000000000,
|
||
300000000000000000000000000000000000000000000000,
|
||
000000000000000000000000000000000000000000000000,
|
||
100000000000000000000000100000000000000000000000,
|
||
100000000000100000000000100000000000200000000000,
|
||
000000000000100000000000100000000000100000000000,
|
||
200000000000200000000000200000000000000000000000,
|
||
100000000000100000000000100000000000000000000000,
|
||
100000000000100000000000100000000000000000000000,
|
||
300000000000000000000000000000000000000000000000,
|
||
000000000000000000000000000000000000000000000000,
|
||
100000000000000000000000100000000000000000000000,
|
||
100000000000100000000000100000000000000000000000,
|
||
100000000000000000000000100000000000000000000000,
|
||
100000000000100000000000100000000000100000000000,
|
||
100000000000100000000000100000000000100000000000,
|
||
300000000000300000000000300000000000000000000000,
|
||
100000000000100000000000200000000000200000000000,
|
||
300000000000300000000000300000000000000000000000,
|
||
500000000000000000000000000000000000000000000000,
|
||
800000000000000000000000100000000000100000000000,
|
||
100000000000000000000000000000000000000000000000,
|
||
000000000000000000000000100000000000100000000000,
|
||
100000000000000000000000200000000000200000000000,
|
||
300000000000300000000000300000000000000000000000,
|
||
100000000000100000000000200000000000200000000000,
|
||
300000000000300000000000300000000000000000000000,
|
||
500000000000000000000000000000000000000000000000,
|
||
800000000000000000000000100000000000100000000000,
|
||
100000000000000000000000100000000000000000000000,
|
||
500000000000000000000000800000000000000000000000,
|
||
100000000000000000000000100000000000000000000000,
|
||
300000000000000000000000000000000000000000000000,
|
||
|
||
|
||
#END
|
||
|