Files
2023-06-15 19:15:39 -05:00

1028 lines
11 KiB
Plaintext

//TJADB Project
TITLE:September
TITLEJA:September
SUBTITLE:--Earth, Wind & Fire/Heisei Meoto Jawan
BPM:126
WAVE:September.ogg
OFFSET:-13.676
DEMOSTART:51.766
COURSE:Oni
LEVEL:7
STYLE:Double
#START P1
2000200020002020,
2000200020002020,
2000202020002020,
2000202030000000,
1010201202102011,
1010201100111020,
1010202101202011,
1010201100112020,
1010202102102011,
1010201100111020,
2000202020002020,
2000202030004000,
1020102100221011,
2010201110102020,
1020102100112022,
1010202210102020,
1020102100221011,
2010201100111020,
500000000000000000000000000000000000000000008000,
0030003000221000,
1010201000201000,
1120112011222000,
1010201000102000,
2210221022111000,
1010201000201000,
1120112011222000,
0010112000000000,
0010112030304000,
1010202000000000,
0011202011112000,
0000000010102010,
0011202011112000,
1010202010102010,
0011201000000000,
2000202020002020,
2000202010112020,
1010201202102011,
1010201100111020,
1010202101202011,
1010201100112020,
1010202102102011,
1010201100111020,
1010222010102220,
1111222211112000,
1020102101221011,
2010201110102020,
1020102101112022,
1010202210102000,
1020102101221011,
2010201100111020,
500000000000000000000000000000000000000000008000,
0030003000221000,
1010201000201000,
1120112011221000,
1010201000102000,
2210221022112000,
1010201000201000,
1120112011221000,
0010112000000000,
0010112030304000,
1010201000201000,
2210221022121000,
1010201000102000,
1120112011212000,
1010201000201000,
2210221022121000,
1110201120201110,
2010211020203000,
#END
#START P2
2000200020002020,
2000200020002020,
2000202020002020,
2000202030000000,
1020102100221011,
2010201110102020,
1020102100112022,
1010202210102020,
1020102100221011,
2010201100111020,
2000202020002020,
2000202030004000,
1010201202102011,
1010201100111020,
1010202101202011,
1010201100112020,
1010202102102011,
1010201100111020,
500000000000000000000000000000000000000000008000,
0030003000221000,
1010201000201000,
2210221022111000,
1010201000102000,
1120112011222000,
1010201000201000,
2210221022111000,
0000000000101120,
0010112030304000,
0000000010102020,
0011202011112000,
1010201000000000,
0011202011112000,
1010202010102010,
0011201000000000,
2000202020002020,
2000202010112020,
1020102101221011,
2010201110102020,
1020102101112022,
1010202210102020,
1020102101221011,
2010201100111020,
1010222010102220,
1111222211112000,
1010201202102011,
1010201101011020,
1010202101202011,
1010201101012020,
1010202102102011,
1010201101012010,
500000000000000000000000000000000000000000008000,
0030003000221000,
1010201000201000,
2210221022112000,
1010201000102000,
1120112011221000,
1010201000201000,
2210221022112000,
0000000000101120,
0010112030304000,
1010201000201000,
1120112011212000,
1010201000102000,
2210221022121000,
1010201000201000,
1120112011212000,
1110201120201110,
2010211020203000,
#END
STYLE:Single
#START
2000200020002020,
2000200020002020,
2000202020002020,
2000202030000000,
1010201202102011,
1010201100111020,
1010202101202011,
1010201100112020,
1010202102102011,
1010201100111020,
2000202020002020,
2000202030004000,
1010202102102011,
1010201100111020,
1010202101202011,
1010201100112020,
1010202102102011,
1010201100111020,
500000000000000000000000000000000000000000008000,
0030003000221000,
1010201000201000,
1120112011222000,
1010201000102000,
2210221022111000,
1010201000201000,
1120112011222010,
0010112000101120,
0010112030304000,
1010202010102010,
0011202011112000,
1010202010102010,
0011202011112000,
1010202010102010,
0011201000000000,
2000202020002020,
2000202010112020,
1010201202102011,
1010201100111020,
1010202101202011,
1010201100112020,
1010201202102011,
1010201100111020,
1010222010102220,
1111222211112000,
1010201202102011,
1010201101011020,
1010202101202011,
1010201101012020,
1010202102102011,
1010201101012010,
500000000000000000000000000000000000000000008000,
0030003000221000,
1010201000201000,
1120112011221000,
1010201000102000,
2210221022112000,
1010201000201000,
1120112011221010,
0010112000101120,
0010112030304000,
1010201000201000,
1120112011212000,
1010201000102000,
2210221022121000,
1010201000201000,
1120112011212000,
1110201120201110,
2010211010203000,
#END
COURSE:Hard
LEVEL:3
STYLE:Double
SCOREINIT:170
SCOREDIFF:150
#START P1
20202022,
20202020,
20202022,
20203000,
11210121,
0010101100102000,
11210121,
0010101100202000,
11210121,
0010101100000000,
20202022,
20203040,
12101120,
1000101110102000,
12101120,
1000101110202000,
12101120,
1000101100102000,
50000008,
0030003000221000,
11210210,
1010202010111000,
11210210,
1010202010222000,
11210210,
1010202011101000,
01120000,
01121120,
10220000,
01201022,
00001022,
01201022,
10221021,
01210000,
20202022,
20223040,
11210121,
0010101100102000,
11210121,
0010101100202000,
11210121,
0010101100000000,
10221022,
10221040,
12101120,
1000101110102000,
12101120,
1000101110202000,
12101120,
1000101100102010,
50000008,
0030003000221000,
#GOGOSTART
11210210,
1020102011102000,
11210210,
2010201022201000,
11210210,
1020102011102000,
0010111000000000,
0010111010102000,
11210210,
2010201022201000,
11210210,
1020102011102000,
11210210,
2010201022201000,
11211211,
2010111010103000,
#GOGOEND
#END
#START P2
20202022,
20202020,
20202022,
20203000,
12101120,
1000101110102000,
12101120,
1000101110202000,
12101120,
1000101100000000,
20202022,
20203040,
11210121,
0010101100102000,
11210121,
0010101100202000,
11210121,
0010101100102000,
50000008,
0030003000221000,
#GOGOSTART
11210210,
1010202010111000,
11210210,
1010202010222000,
11210210,
1010202011101000,
00000112,
01121120,
#GOGOEND
00001022,
01201022,
10220000,
01201022,
10221021,
01210000,
20202022,
20223040,
12101120,
1000101110102000,
12101120,
1000101110202000,
12101120,
1000101100000000,
10221022,
10221040,
11210121,
0010101100102000,
11210121,
0010101100202000,
11210121,
0010101100102010,
50000008,
0030003000221000,
#GOGOSTART
11210210,
2010201022201000,
11210210,
1020102011102000,
11210210,
2010201022201000,
0000000000101110,
0010111010102000,
11210210,
1020102011102000,
11210210,
2010201022201000,
11210210,
1020102011102000,
11211211,
2010111010103000,
#GOGOEND
#END
STYLE:Single
SCOREINIT:180
SCOREDIFF:140
#START
20202022,
20202020,
20202022,
20203000,
11210121,
0010101101020000,
11210121,
0010101100202000,
11210121,
0010101100000000,
20202022,
20203040,
11210121,
0010101100102000,
11210121,
0010101100202000,
11210121,
0010101100102000,
50000008,
0030003000221000,
#GOGOSTART
11210210,
1010202010111000,
11210210,
1010202010222000,
11210210,
1010202010111010,
01120112,
01121120,
#GOGOEND
10221021,
01201022,
10221021,
01201022,
10221021,
01210000,
20202022,
20223040,
11210121,
0010101100102000,
11210121,
0010101100202000,
11210121,
0010101100102000,
10221022,
1110111010004000,
11210121,
01110121,
11210121,
01110122,
11210121,
01110121,
50000008,
0030003000221000,
#GOGOSTART
11210210,
1020102011102000,
11210210,
2010201022201000,
11210210,
1020102011102000,
0010111000101110,
0010111010102000,
11210210,
1020102011102000,
11210210,
2010201022201000,
11210210,
1020102011102000,
11211211,
2010111010103000,
#GOGOEND
#END
COURSE:Normal
LEVEL:3
STYLE:Double
SCOREINIT:800
SCOREDIFF:220
#START P1
22,
22,
2222,
2230,
10110100,
10010000,
10110100,
10020000,
10110100,
10010000,
2222,
2230,
11101000,
10110000,
11101000,
10220000,
11101000,
10110000,
5,
00008210,
#GOGOSTART
10110000,
1210,
10110000,
2210,
10110000,
2120,
01110000,
01110000,
#GOGOEND
1200,
01101000,
0012,
01101000,
1212,
01110000,
2222,
2230,
10110100,
10030000,
10110100,
10040000,
10110100,
10030000,
2222,
2230,
11101000,
10110000,
11101000,
10220000,
11101000,
10110000,
50000008,
01010210,
#GOGOSTART
10101100,
1210,
10102200,
2210,
10101100,
2120,
00000111,
00001110,
10110000,
1211,
10110000,
2211,
10110000,
2121,
10111010,
11102220,
#GOGOEND
#END
#START P2
22,
22,
2222,
2230,
11101000,
10110000,
11101000,
10220000,
11101000,
10110000,
2222,
2230,
10110100,
10010000,
10110100,
10020000,
10110100,
10010000,
5,
00008210,
#GOGOSTART
10101100,
1210,
10102200,
2210,
10101100,
2120,
00000111,
00001110,
#GOGOEND
0012,
01101000,
1200,
01101000,
1212,
01110000,
2222,
2230,
11101000,
10110000,
11101000,
10220000,
11101000,
10110000,
2222,
2230,
10110100,
10030000,
10110100,
10040000,
10110100,
10030000,
50000008,
01010210,
#GOGOSTART
10110000,
1210,
10110000,
2210,
10110000,
2120,
01110000,
01110000,
10110000,
1211,
10110000,
2211,
10110000,
2121,
10111010,
11102220,
#GOGOEND
#END
STYLE:Single
SCOREINIT:750
SCOREDIFF:220
#START
22,
22,
2222,
2230,
10110100,
11,
10110100,
12,
10110100,
11,
2222,
2230,
10110100,
11,
10110100,
12,
10110100,
11,
50000000,
00080120,
#GOGOSTART
10110000,
1210,
10110000,
2210,
10110000,
2120,
1111,
10101110,
#GOGOEND
1212,
01101000,
1212,
01101000,
1212,
01110000,
2222,
2230,
10110100,
13,
10110100,
14,
10110100,
13,
2222,
2230,
10110100,
10010010,
10110100,
10010020,
10110100,
10010010,
50000008,
01010210,
#GOGOSTART
10110000,
1210,
10110000,
2210,
10110000,
2120,
1111,
10101110,
10110000,
1211,
10110000,
2211,
10110000,
2121,
10111010,
11102220,
#GOGOEND
#END
COURSE:Easy
LEVEL:3
STYLE:Double
SCOREINIT:810
SCOREDIFF:240
#START P1
22,
2220,
22,
2220,
1110,
10010000,
1110,
10020000,
1110,
10010000,
22,
2220,
0202,
0212,
0202,
0212,
0202,
0210,
5,
0080,
#GOGOSTART
10001100,
1110,
1110,
33,
10001100,
1110,
0101,
0110,
#GOGOEND
11,
0110,
0101,
0220,
0101,
0101,
22,
2220,
1110,
10030000,
1110,
10040000,
1110,
10030000,
2222,
2220,
0202,
0212,
0202,
0212,
0202,
0210,
50000008,
01010010,
#GOGOSTART
10001100,
1110,
1110,
33,
10001100,
1110,
0101,
0101,
10100100,
1110,
10100100,
2220,
10100100,
1110,
0101,
00101110,
#GOGOEND
#END
#START P2
22,
2220,
22,
2220,
0202,
0212,
0202,
0212,
0202,
0210,
22,
2220,
1110,
10010000,
1110,
10020000,
1110,
10010000,
5,
0080,
#GOGOSTART
1110,
33,
10001100,
1110,
10001100,
1110,
0101,
0110,
#GOGOEND
0101,
0110,
11,
0220,
0101,
0101,
22,
2220,
0202,
0212,
0202,
0212,
0202,
0210,
2222,
2220,
1110,
20030000,
1110,
10040000,
1110,
10030000,
50000008,
01010010,
#GOGOSTART
1110,
33,
10001100,
1110,
10001100,
1110,
0101,
0101,
10100100,
2220,
10100100,
1110,
10100100,
1110,
0101,
00101110,
#GOGOEND
#END
STYLE:Single
SCOREINIT:780
SCOREDIFF:230
#START
22,
2220,
22,
2220,
1110,
11,
1110,
12,
1110,
11,
22,
2220,
1110,
11,
1110,
12,
1110,
11,
5,
08,
#GOGOSTART
10001100,
1110,
10001100,
2220,
10001100,
1110,
0101,
0112,
#GOGOEND
0101,
0110,
0101,
0220,
0101,
0110,
2020,
2220,
1110,
11,
1110,
12,
1110,
11,
2222,
2220,
1110,
13,
1110,
14,
1110,
13,
50000008,
01010010,
#GOGOSTART
10001100,
1110,
10001100,
2220,
10001100,
1110,
0101,
0101,
10100100,
1110,
10100100,
2220,
10100100,
1110,
0101,
00101110,
#GOGOEND
#END