Files
2023-06-15 19:15:39 -05:00

235 lines
6.8 KiB
Plaintext

//TJADB Project
TITLE:Shi Fei Ti
TITLEJA:是非題
SUBTITLE:--Christine Fan
SUBTITLEJA:范瑋��
BPM:95.967
WAVE:Shi Fei Ti.ogg
OFFSET:-5.823
DEMOSTART:50.200
COURSE:Oni
LEVEL:6
SCOREINIT:1050
SCOREDIFF:260
#START
100000000000200000200000000000000000000000000000,
100000000000200000200000000000000000100000100000,
100000200200100000200000100000200200100000200000,
100000000000100000200200200000000000100000100000,
100000200200100000200000100000200200100000200000,
100000000000100000200200200000000000100000100000,
100000200000100000200000100000200200100000200000,
100000000000300000000000300000200000100000100100,
100000200000100000100100100000200000100000200000,
100000000300000000200000200000000000100000100000,
100000200200100000200000100000200200100000200000,
100000000000100000200200200000000000100000100000,
100000200200100000200000100000200200100000200000,
100000000300000000200000200000000000100000100000,
100000200000100000200000100000200200100000200000,
100000000000300000000000300000200000100000100100,
200000200000100000100100200000200000100000200000,
000000300000000000000000000000000000100000100000,
100000200000100000200200100000200000100000200200,
100000000100000000100000200000200000100000200000,
100000200000000000100000000000100000200000100000,
200000000100000000300000000000100000100100100000,
100000200200100000100000100000200200100000100000,
100000000000300000000000300000000000100000100100,
100000200000100000100100100000200000100000000100,
000000300000000000000000000000000000100000100100,
#GOGOSTART
100000200200200000200000100000100100100000200000,
100000200200200000200000100100100000200000100100,
100000100000200000100000200000100000100100100000,
100000000100000000300000000000100000100200100000,
100000200000200000100000100000200000200000100000,
300000000000300000000000300000000000200000200000,
100000100100200000100200100000200100200000000000,
000000000000300000000000300000000000200000200000,
200000000000200000200000200000000000200000200000,
#GOGOEND
200000000000000000000000000000000000000000000000,
#MEASURE 8/4
500000000000000000000000000000000000000000000000000000000000000000000000000000008000
#BPMCHANGE 48
000000000000,
#END
COURSE:Hard
LEVEL:5
BALLOON:16
SCOREINIT:950
SCOREDIFF:260
#START
10220000,
10220011,
20112212,
10102011,
20112212,
10102011,
20112212,
10303011,
20112212,
1003000000001010,
20112212,
10102011,
20112212,
1003000020001010,
20112212,
10303011,
22112212,
03000010,
1011102010111020,
1001001010201020,
1011102010111010,
2001003000101020,
12121212,
10303011,
2000101020001001,
03000011,
#GOGOSTART
1011102010111020,
1020102010111020,
1010201010111010,
1001003000101020,
1011102010111020,
30303011,
1011102010111020,
0370,
,
#GOGOEND
8,
#MEASURE 8/4
500000000000000000000000000000000000000000000000000000000000000000000000000000008000
#BPMCHANGE 48
000000000000,
#END
COURSE:Normal
LEVEL:3
BALLOON:20
SCOREINIT:1460
SCOREDIFF:580
#START
100000000000000000000000200000000000000000000000,
100000000000000000000000000000000000000000000000,
100000000000100000000000100000000000200000000000,
100000000000100000000000000000000000000000000000,
100000000000100000000000100000000000200000000000,
100000000000100000000000000000000000000000000000,
100000000000100000000000100000000000200000000000,
100000000000100000000000100000000000000000000000,
100000000000200000000000100000000000200000000000,
300000000000000000000000000000000000200000000000,
100000000000100000000000100000000000200000000000,
100000000000100000000000000000000000200000000000,
100000000000100000000000100000000000200000000000,
100000000000100000000000000000000000200000000000,
100000000000100000000000100000000000200000000000,
100000000000100000000000100000000000000000000000,
300000000000000000000000300000000000000000600000,
000000000000000000000000800000000000000000000000,
100000000000100000000000200000000000200000000000,
300000000000000000300000000000000000000000000000,
100000000000100000000000200000000000200000000000,
300000000000000000300000000000000000000000000000,
100000000000200000000000100000000000200000000000,
100000000000200000000000100000000000000000000000,
100000000000000000000000100000000000000000500000,
000000000000000000000000800000000000000000000000,
#GOGOSTART
300000000000000000000000100000000000200000000000,
100000000000200000000000100000000000000000000000,
100000000000000000000000100000000000200000000000,
100000000000000000300000000000000000000000000000,
100000000000200000000000100000000000200000000000,
300000000000300000000000300000000000000000000000,
100000000000200000000000100000000000200000000000,
000000000000900000000000000000000000000000000000,
000000000000000000000000000000000000000000800000,
#GOGOEND
000000000000000000000000000000000000000000000000,
500000000000000000000000000000000000000000000008,
#END
COURSE:Easy
LEVEL:3
BALLOON:16
SCOREINIT:1320
SCOREDIFF:710
#START
100000000000000000000000000000000000000000000000,
100000000000000000000000000000000000000000000000,
100000000000100000000000000000000000000000000000,
100000000000100000000000000000000000000000000000,
100000000000100000000000100000000000000000000000,
300000000000000000000000000000000000000000000000,
100000000000100000000000100000000000000000000000,
100000000000100000000000100000000000000000000000,
100000000000000000000000100000000000000000000000,
300000000000000000000000000000000000000000000000,
200000000000200000000000000000000000000000000000,
200000000000200000000000000000000000000000000000,
200000000000200000000000200000000000000000000000,
400000000000000000000000000000000000000000000000,
100000000000200000000000100000000000000000000000,
100000000000200000000000100000000000000000000000,
300000000000000000000000300000000000000000600000,
000000000000000000000000800000000000000000000000,
100000000000100000000000200000000000000000000000,
300000000000000000000000000000000000000000000000,
100000000000100000000000200000000000000000000000,
300000000000000000000000000000000000000000000000,
100000000000200000000000200000000000000000000000,
100000000000200000000000200000000000000000000000,
100000000000000000000000100000000000000000500000,
000000000000000000000000800000000000000000000000,
#GOGOSTART
300000000000000000000000100000000000100000000000,
100000000000000000000000200000000000000000000000,
100000000000000000000000100000000000100000000000,
100000000000000000000000200000000000000000000000,
100000000000000000000000200000000000000000000000,
300000000000300000000000300000000000000000000000,
100000000000000000000000200000000000200000000000,
000000000000900000000000000000000000000000000000,
000000000000000000000000000000000000000000800000,
#GOGOEND
000000000000000000000000000000000000000000000000,
500000000000000000000000000000000000000000000008,
#END