forked from ESE/ESE
581 lines
6.9 KiB
Plaintext
581 lines
6.9 KiB
Plaintext
//TJADB Project
|
|
TITLE:Shin Zombie
|
|
TITLEJA:シン・ゾンビ
|
|
SUBTITLE:--GLAY
|
|
SUBTITLEJA:GLAY×太鼓の達人タイアップソング
|
|
BPM:131
|
|
WAVE:Shin Zombie.ogg
|
|
OFFSET:-1.749
|
|
DEMOSTART:48.187
|
|
|
|
COURSE:Oni
|
|
LEVEL:9
|
|
SCOREINIT:390
|
|
SCOREDIFF:90
|
|
|
|
|
|
#START
|
|
|
|
|
|
#MEASURE 1/4
|
|
#SCROLL 1.37404580153
|
|
3,
|
|
#MEASURE 4/4
|
|
#BPMCHANGE 180
|
|
#SCROLL 1
|
|
1010201010221020,
|
|
1020101020112211,
|
|
2010102210201020,
|
|
1010201122112210,
|
|
1010201010221020,
|
|
1020101020112211,
|
|
2010102210201020,
|
|
1010201122121000,
|
|
1110201110201110,
|
|
2011102011212020,
|
|
1120201120201120,
|
|
2011202012121010,
|
|
2220102220102220,
|
|
1022201022121010,
|
|
2210102210102210,
|
|
2010221020102222,
|
|
1010201020112020,
|
|
2010201202212210,
|
|
|
|
#GOGOSTART
|
|
3000200210102011,
|
|
2200
|
|
|
|
#GOGOEND
|
|
000000112000,
|
|
1000200210102011,
|
|
2210201000112010,
|
|
1000200210102011,
|
|
#MEASURE 2/4
|
|
20112220,
|
|
#MEASURE 4/4
|
|
1000200210102011,
|
|
2210201020112010,
|
|
1000200210102011,
|
|
#MEASURE 2/4
|
|
20112220,
|
|
#MEASURE 4/4
|
|
1000200211102011,
|
|
2210201020112010,
|
|
0010221010102011,
|
|
#MEASURE 2/4
|
|
20112222,
|
|
#MEASURE 4/4
|
|
1000200211102011,
|
|
2210201020112010,
|
|
0010200211102030,
|
|
0030003000112000,
|
|
|
|
#GOGOSTART
|
|
1010200210102011,
|
|
1011201112102000,
|
|
1010200210102011,
|
|
2010201022102222,
|
|
1010200210102011,
|
|
1011201112102000,
|
|
1010202210102011,
|
|
2010201122102211,
|
|
1010200210102011,
|
|
1011202212102000,
|
|
1010200210102011,
|
|
2010221011102222,
|
|
1011200210102011,
|
|
1011202212102000,
|
|
1010202210102011,
|
|
2212102212112211,
|
|
0010102220102010,
|
|
2211202010102220,
|
|
10201120,
|
|
122111222111,
|
|
0010102220102011,
|
|
2211202210102220,
|
|
|
|
#GOGOEND
|
|
#MEASURE 8/4
|
|
#BPMCHANGE 360
|
|
#SCROLL 0.5
|
|
3000102200200020,
|
|
1000100022112020,
|
|
500000000000000000000000000000000000000000000000000000000008000000000000000000000000000000000000,
|
|
|
|
#BRANCHSTART r,12,12
|
|
#N
|
|
500000000000000000000000000000000000000000000000000000000008000000000000000000000000000000000000,
|
|
#GOGOSTART
|
|
#MEASURE 4/4
|
|
1121,
|
|
#BARLINEOFF
|
|
10221020,
|
|
#BARLINEON
|
|
#MEASURE 8/4
|
|
1020201020112012,
|
|
1021202211221022,
|
|
1212101122122222,
|
|
1000221110202212,
|
|
1020221210202212,
|
|
2020122112211221,
|
|
1000202011102000,
|
|
1212121210222010,
|
|
2121212120111020,
|
|
1010200020102011,
|
|
2211201122112000,
|
|
1022102211020202,
|
|
1022020120102220,
|
|
1000100010222020,
|
|
1022202022112212,
|
|
0010102220102010,
|
|
2211202210403040,
|
|
|
|
#E
|
|
,
|
|
#MEASURE 4/4
|
|
,
|
|
,
|
|
#MEASURE 8/4
|
|
,
|
|
,
|
|
,
|
|
,
|
|
,
|
|
,
|
|
,
|
|
,
|
|
,
|
|
,
|
|
,
|
|
,
|
|
,
|
|
,
|
|
,
|
|
,
|
|
,
|
|
|
|
#M
|
|
500000000000000000000000000000000000000000000000000000000008000000000000000000000000000000000000,
|
|
#GOGOSTART
|
|
#MEASURE 4/4
|
|
1121,
|
|
#BARLINEOFF
|
|
10221020,
|
|
#BARLINEON
|
|
#MEASURE 8/4
|
|
1020201020112212,
|
|
1221202211221122,
|
|
10201020101010102020102020222222,
|
|
1000221110202212,
|
|
1122221211222212,
|
|
22222111122221111222221111222211,
|
|
1000202011102000,
|
|
1212121210222010,
|
|
2121212120111020,
|
|
1010200020102011,
|
|
2211201122112000,
|
|
1022102211020202,
|
|
1022020120102220,
|
|
1000100010222020,
|
|
1022202022112212,
|
|
0010102220102010,
|
|
2211202210403040,
|
|
|
|
#BRANCHEND
|
|
#GOGOEND
|
|
|
|
|
|
#END
|
|
|
|
|
|
COURSE:Hard
|
|
LEVEL:6
|
|
BALLOON:11,11,19
|
|
SCOREINIT:560
|
|
SCOREDIFF:135
|
|
|
|
|
|
#START
|
|
|
|
|
|
#BARLINEOFF
|
|
#MEASURE 1/4
|
|
#SCROLL 1.37404580153
|
|
,
|
|
#BARLINEON
|
|
#MEASURE 4/4
|
|
#BPMCHANGE 180
|
|
#SCROLL 1
|
|
11221011,
|
|
22101122,
|
|
10112210,
|
|
11221110,
|
|
11221011,
|
|
22101122,
|
|
10112210,
|
|
11221110,
|
|
10210210,
|
|
2010002011101000,
|
|
10210210,
|
|
2010002011101000,
|
|
20120120,
|
|
1020001022202000,
|
|
10210212,
|
|
10121012,
|
|
11212127,
|
|
0008,
|
|
|
|
#GOGOSTART
|
|
3,
|
|
00
|
|
|
|
#GOGOEND
|
|
000120,
|
|
10201120,
|
|
11210121,
|
|
10201121,
|
|
#MEASURE 2/4
|
|
0122,
|
|
#MEASURE 4/4
|
|
10201120,
|
|
11210121,
|
|
10201121,
|
|
#MEASURE 2/4
|
|
0122,
|
|
#MEASURE 4/4
|
|
10201120,
|
|
11210121,
|
|
10201122,
|
|
#MEASURE 2/4
|
|
0221,
|
|
#MEASURE 4/4
|
|
10201120,
|
|
11210121,
|
|
10201123,
|
|
03030120,
|
|
|
|
#GOGOSTART
|
|
1000200011102000,
|
|
100000100000200000500000000000000000000008000000,
|
|
00201120,
|
|
10221120,
|
|
1000200011102000,
|
|
100000100000200000500000000000000000000008000000,
|
|
00221120,
|
|
10212121,
|
|
1000200011102000,
|
|
100000100000200000500000000000000000000008000000,
|
|
00201120,
|
|
10221120,
|
|
1010200011102000,
|
|
100000100000200000500000000000000000000008000000,
|
|
00221122,
|
|
70000008,
|
|
03330304,
|
|
03333030,
|
|
6,
|
|
000000000000000008000000000000000000000000000000,
|
|
03330304,
|
|
03333040,
|
|
|
|
#GOGOEND
|
|
#MEASURE 8/4
|
|
#BPMCHANGE 360
|
|
#SCROLL 0.5
|
|
7,
|
|
,
|
|
8,
|
|
,
|
|
|
|
#GOGOSTART
|
|
#MEASURE 4/4
|
|
1122,
|
|
#BARLINEOFF
|
|
1011,
|
|
#BARLINEON
|
|
#MEASURE 8/4
|
|
22101122,
|
|
10112210,
|
|
11221110,
|
|
11221011,
|
|
22101122,
|
|
10112210,
|
|
11221110,
|
|
11221111,
|
|
22111122,
|
|
11112211,
|
|
11221110,
|
|
11221111,
|
|
22111122,
|
|
11112211,
|
|
11221111,
|
|
06000000,
|
|
000000000000000000000000000000000000000000000008,
|
|
|
|
#GOGOEND
|
|
|
|
|
|
#END
|
|
|
|
|
|
COURSE:Normal
|
|
LEVEL:4
|
|
BALLOON:6,15,6,6,6,7
|
|
SCOREINIT:870
|
|
SCOREDIFF:250
|
|
|
|
|
|
#START
|
|
|
|
|
|
#BARLINEOFF
|
|
#MEASURE 1/4
|
|
#SCROLL 1.37404580153
|
|
,
|
|
#BARLINEON
|
|
#MEASURE 4/4
|
|
#BPMCHANGE 180
|
|
#SCROLL 1
|
|
11,
|
|
1011,
|
|
11,
|
|
1011,
|
|
11,
|
|
1011,
|
|
11,
|
|
70000800,
|
|
11,
|
|
10001110,
|
|
11,
|
|
10002220,
|
|
22,
|
|
20001110,
|
|
11,
|
|
1111,
|
|
9,
|
|
,
|
|
|
|
#GOGOSTART
|
|
8,
|
|
0
|
|
|
|
#GOGOEND
|
|
000,
|
|
10001100,
|
|
22,
|
|
10001100,
|
|
#MEASURE 2/4
|
|
2,
|
|
#MEASURE 4/4
|
|
10001100,
|
|
22,
|
|
10001100,
|
|
#MEASURE 2/4
|
|
2,
|
|
#MEASURE 4/4
|
|
10001100,
|
|
2220,
|
|
10001100,
|
|
#MEASURE 2/4
|
|
2,
|
|
#MEASURE 4/4
|
|
10001100,
|
|
2220,
|
|
10001107,
|
|
08,
|
|
|
|
#GOGOSTART
|
|
10001011,
|
|
500000000000000000000000000000000000000008000000,
|
|
00101110,
|
|
22,
|
|
10001011,
|
|
500000000000000000000000000000000000000008000000,
|
|
00111010,
|
|
22,
|
|
10001011,
|
|
500000000000000000000000000000000000000008000000,
|
|
00101110,
|
|
22,
|
|
10101011,
|
|
500000000000000000000000000000000000000008000000,
|
|
00111010,
|
|
70000800,
|
|
03330303,
|
|
03303000,
|
|
6,
|
|
000000000000000008000000000000000000000000000000,
|
|
03330303,
|
|
03303040,
|
|
|
|
#GOGOEND
|
|
#MEASURE 8/4
|
|
#BPMCHANGE 360
|
|
#SCROLL 0.5
|
|
3,
|
|
,
|
|
,
|
|
,
|
|
|
|
#GOGOSTART
|
|
#MEASURE 4/4
|
|
1,
|
|
#BARLINEOFF
|
|
1,
|
|
#BARLINEON
|
|
#MEASURE 8/4
|
|
1011,
|
|
11,
|
|
1022,
|
|
22,
|
|
2011,
|
|
11,
|
|
70000800,
|
|
11,
|
|
10001110,
|
|
11,
|
|
10002220,
|
|
22,
|
|
20001110,
|
|
11,
|
|
70000800,
|
|
06000000,
|
|
000000000000000000000000000000000000000000000008,
|
|
|
|
#GOGOEND
|
|
|
|
|
|
#END
|
|
|
|
|
|
COURSE:Easy
|
|
LEVEL:3
|
|
BALLOON:9,12,8,9,11
|
|
SCOREINIT:1290
|
|
SCOREDIFF:765
|
|
|
|
|
|
#START
|
|
|
|
|
|
#BARLINEOFF
|
|
#MEASURE 1/4
|
|
#SCROLL 1.37404580153
|
|
,
|
|
#BARLINEON
|
|
#MEASURE 4/4
|
|
#BPMCHANGE 180
|
|
#SCROLL 1
|
|
1,
|
|
11,
|
|
1,
|
|
11,
|
|
1,
|
|
11,
|
|
7,
|
|
8,
|
|
1,
|
|
11,
|
|
1,
|
|
11,
|
|
1,
|
|
11,
|
|
1,
|
|
22,
|
|
9,
|
|
,
|
|
|
|
#GOGOSTART
|
|
8,
|
|
0
|
|
|
|
#GOGOEND
|
|
000,
|
|
1,
|
|
11,
|
|
1,
|
|
#MEASURE 2/4
|
|
1,
|
|
#MEASURE 4/4
|
|
1,
|
|
11,
|
|
1,
|
|
#MEASURE 2/4
|
|
1,
|
|
#MEASURE 4/4
|
|
1,
|
|
11,
|
|
1,
|
|
#MEASURE 2/4
|
|
1,
|
|
#MEASURE 4/4
|
|
1,
|
|
11,
|
|
0700,
|
|
0800,
|
|
|
|
#GOGOSTART
|
|
11,
|
|
500000000000000000000000000008000000000000000000,
|
|
11,
|
|
1,
|
|
11,
|
|
500000000000000000000000000008000000000000000000,
|
|
11,
|
|
1,
|
|
22,
|
|
500000000000000000000000000008000000000000000000,
|
|
11,
|
|
1,
|
|
22,
|
|
500000000000000000000000000008000000000000000000,
|
|
11,
|
|
1,
|
|
05000000,
|
|
000000000000000008000000000000000000000000000000,
|
|
1,
|
|
,
|
|
06000000,
|
|
000000000000000008000000000000000000000000000000,
|
|
|
|
#GOGOEND
|
|
#MEASURE 8/4
|
|
#BPMCHANGE 360
|
|
#SCROLL 0.5
|
|
3,
|
|
,
|
|
,
|
|
,
|
|
|
|
#GOGOSTART
|
|
#MEASURE 4/4
|
|
1,
|
|
#BARLINEOFF
|
|
,
|
|
#BARLINEON
|
|
#MEASURE 8/4
|
|
11,
|
|
1,
|
|
22,
|
|
2,
|
|
11,
|
|
7,
|
|
8,
|
|
1,
|
|
11,
|
|
1,
|
|
22,
|
|
2,
|
|
11,
|
|
7,
|
|
8,
|
|
06000000,
|
|
000000000000000000000000000000000000000000000008,
|
|
|
|
#GOGOEND
|
|
|
|
|
|
#END
|
|
|