forked from ESE/ESE
245 lines
9.0 KiB
Plaintext
245 lines
9.0 KiB
Plaintext
//TJADB Project
|
|
TITLE:Shine
|
|
TITLEJA:Shine
|
|
SUBTITLE:--Yoshihiko Nishio feat. Leo Ieri/Kaeru no ôjosama
|
|
SUBTITLEJA:「アイドルマスター シンデレラガールズ」より
|
|
BPM:127
|
|
WAVE:Shine.ogg
|
|
OFFSET:-3.776
|
|
DEMOSTART:40.625
|
|
|
|
COURSE:Oni
|
|
LEVEL:6
|
|
SCOREINIT:1030
|
|
SCOREDIFF:250
|
|
|
|
|
|
#START
|
|
|
|
|
|
100000000000000000100000000000000000000000000000,
|
|
200000000000000000200000000000000000000000000000,
|
|
100000000000000000100000000000000000000000000000,
|
|
200000000000000000200000000000000000000000000000,
|
|
100000000000000000100000100000200000000000200000,
|
|
000000000000100000100000000000100000000000000000,
|
|
500000000000000000000000000000000000000008000000,
|
|
000000000000000000000000000000000000000000000000,
|
|
100000000000000000100000100000200000000000200000,
|
|
000000000000100000200000000000200000000000000000,
|
|
500000000000000000000000000000000000000008000000,
|
|
000000000000000000000000000000000000200000000000,
|
|
100000200000100000000000100000200000100000000000,
|
|
100000200000100000000000100000200000100000200200,
|
|
100000200000100000000000100000200000100000000000,
|
|
100000200000100000000000100000200000100000200200,
|
|
100000200000100000200200100000200000100000200200,
|
|
100000200200100000200200100000100000100000100000,
|
|
000000300000300000200000200000200000300000300000,
|
|
000000300000300000100100100000100000000000200000,
|
|
|
|
#GOGOSTART
|
|
100000100100100000200000100100100000100000200000,
|
|
100000100100100000200000100100100000100000200000,
|
|
100000100100100000200000100000200000000000200000,
|
|
100000200200200000200000100000200200200000200000,
|
|
100000100000200000100100100000100000200000100000,
|
|
000000100000200000100100100000100000200000500000,
|
|
000000000000000000000000000008000000000000300000,
|
|
000000300000000000300000100100100000000000200000,
|
|
100000100100100000200000100100100000100000200000,
|
|
100000100100100000200000100100100000100000200000,
|
|
100000100100100000200000100000200000000000200000,
|
|
100000200200200000200000100000200200200000200000,
|
|
100000100000200000100100200000100000200000100000,
|
|
000000100000200000100100200000100000200000500000,
|
|
000000000000000000000000000080000000000000200000,
|
|
000000200000000000100000000000100000000000200000,
|
|
100000100000200200200000100000100000200000000000,
|
|
100000100000200200200000100000100000200000200200,
|
|
100000100000200200200000100000100000200000000000,
|
|
100000100000200200200000100000100000200000000000,
|
|
100000000000200000100000000000100000200000100000,
|
|
000000100100100000100000300000300000300000300000,
|
|
|
|
#GOGOEND
|
|
|
|
|
|
#END
|
|
|
|
|
|
COURSE:Hard
|
|
LEVEL:3
|
|
SCOREINIT:1120
|
|
SCOREDIFF:310
|
|
|
|
|
|
#START
|
|
|
|
|
|
100000000000000000100000000000000000000000000000,
|
|
200000000000000000200000000000000000000000000000,
|
|
100000000000000000100000000000000000000000000000,
|
|
200000000000000000200000000000000000000000000000,
|
|
100000000000000000100000100000100000000000100000,
|
|
000000000000100000100000000000100000000000000000,
|
|
500000000000000000000000000000000000800000000000,
|
|
000000000000000000000000000000000000000000000000,
|
|
100000000000000000100000100000100000000000100000,
|
|
000000000000100000200000000000200000000000000000,
|
|
500000000000000000000000000000000000800000000000,
|
|
000000000000000000000000000000000000000000000000,
|
|
100000000000200000000000100000100000200000000000,
|
|
100000000000200000000000100000200000200000000000,
|
|
100000000000200000000000100000100000200000000000,
|
|
100000000000200000000000100000200000200000000000,
|
|
000000000000200000200000100000100000200000200000,
|
|
000000200000000000100000100000100000100000100000,
|
|
000000300000300000000000000000000000300000300000,
|
|
000000300000300000000000300000300000000000400000,
|
|
#GOGOSTART
|
|
000000100000100000000000100000100000200000000000,
|
|
100000100000100000000000100000100000200000100000,
|
|
000000100000000000000000000000100000000000100000,
|
|
000000100000000000100000000000100000200000100000,
|
|
000000100000100000000000100000100000200000100000,
|
|
000000100000100000000000100000100000200000500000,
|
|
000000000000000000000000800000000000000000300000,
|
|
000000300000000000300000100000100000000000100000,
|
|
000000100000100000000000100000100000200000000000,
|
|
100000100000100000000000100000100000200000100000,
|
|
000000100000000000000000000000100000000000100000,
|
|
000000100000000000100000000000100000200000100000,
|
|
000000100000100000000000100000100000200000100000,
|
|
000000100000100000000000100000100000200000500000,
|
|
000000000000000000000000800000000000000000200000,
|
|
000000200000000000100000000000100000000000500000,
|
|
000000000000000000000000000000000000000000000000,
|
|
800000000000000000000000100000100000000000500000,
|
|
000000000000000000000000000000000000000000000000,
|
|
000000800000000000000000000000000000000000000000,
|
|
100000000000200000100000000000100000200000100000,
|
|
000000100100100000100000300000300000300000300000,
|
|
#GOGOEND
|
|
|
|
|
|
#END
|
|
|
|
|
|
COURSE:Normal
|
|
LEVEL:4
|
|
SCOREINIT:1280
|
|
SCOREDIFF:400
|
|
|
|
|
|
#START
|
|
|
|
|
|
100000000000000000100000000000000000000000000000,
|
|
100000000000000000100000000000000000000000000000,
|
|
100000000000000000100000000000000000000000000000,
|
|
100000000000000000100000000000000000000000000000,
|
|
100000000000000000100000100000000000000000000000,
|
|
100000000000000000100000100000000000000000000000,
|
|
500000000000000000000000000000000000800000000000,
|
|
000000000000000000000000000000000000000000000000,
|
|
100000000000000000100000100000000000000000000000,
|
|
100000000000000000100000100000000000000000000000,
|
|
500000000000000000000000000000000000800000000000,
|
|
000000000000000000000000000000000000000000000000,
|
|
100000000000200000000000100000000000000000000000,
|
|
100000000000200000000000100000000000000000000000,
|
|
100000000000200000000000100000000000000000000000,
|
|
100000000000200000000000100000000000000000000000,
|
|
000000000000100000000000100000000000100000000000,
|
|
100000000000000000100000100000100000100000100000,
|
|
000000300000300000000000000000000000300000300000,
|
|
000000300000300000000000000000000000000000000000,
|
|
#GOGOSTART
|
|
100000000000100000000000100000100000100000000000,
|
|
100000000000100000000000100000100000100000000000,
|
|
100000000000000000000000000000000000000000100000,
|
|
000000100000000000200000000000200000000000100000,
|
|
000000100000000000100000100000000000100000000000,
|
|
000000100000000000100000100000000000100000500000,
|
|
000000000000000000000000800000000000000000300000,
|
|
000000300000000000300000000000000000000000000000,
|
|
100000000000100000000000100000100000100000000000,
|
|
100000000000100000000000100000100000100000000000,
|
|
100000000000000000000000000000000000000000100000,
|
|
000000100000000000200000000000200000000000100000,
|
|
000000100000000000100000100000000000100000000000,
|
|
000000100000000000100000100000000000100000500000,
|
|
000000000000000000000000800000000000000000100000,
|
|
000000100000000000100000000000100000000000500000,
|
|
000000000000000000000000000000000000000000000000,
|
|
800000000000000000000000100000100000000000500000,
|
|
000000000000000000000000000000000000000000000000,
|
|
000000800000000000000000000000000000000000000000,
|
|
100000000000000000100000000000100000100000100000,
|
|
000000100000100000000000300000300000300000300000,
|
|
#GOGOEND
|
|
|
|
|
|
#END
|
|
|
|
|
|
COURSE:Easy
|
|
LEVEL:3
|
|
BALLOON:14
|
|
SCOREINIT:1330
|
|
SCOREDIFF:680
|
|
|
|
|
|
#START
|
|
|
|
|
|
,000000000000000000000000000000000000000000000000,
|
|
000000000000000000000000000000000000000000000000,
|
|
000000000000000000000000000000000000000000000000,
|
|
000000000000000000000000000000000000000000000000,
|
|
100000000000000000000000200000000000000000000000,
|
|
100000000000000000000000200000000000000000000000,
|
|
500000000000000000000000000000000000800000000000,
|
|
000000000000000000000000000000000000000000000000,
|
|
100000000000000000000000200000000000000000000000,
|
|
100000000000000000000000200000000000000000000000,
|
|
500000000000000000000000000000000000800000000000,
|
|
000000000000000000000000000000000000000000000000,
|
|
100000000000000000000000100000000000000000000000,
|
|
100000000000000000000000100000000000000000000000,
|
|
100000000000000000000000100000000000000000000000,
|
|
100000000000000000000000100000000000000000000000,
|
|
000000000000100000000000100000000000100000000000,
|
|
100000000000000000000000000000000000000000300000,
|
|
000000300000300000000000000000000000000000300000,
|
|
000000300000300000000000000000000000000000000000,
|
|
#GOGOSTART
|
|
100000000000100000000000100000000000000000000000,
|
|
100000000000100000000000100000000000000000000000,
|
|
100000000000000000000000000000000000000000100000,
|
|
000000100000000000100000000000100000000000100000,
|
|
000000000000000000000000200000000000200000000000,
|
|
000000000000000000000000200000000000200000000000,
|
|
500000000000000000000000800000000000000000300000,
|
|
000000300000000000300000000000000000000000000000,
|
|
100000000000100000000000100000000000000000000000,
|
|
100000000000100000000000100000000000000000000000,
|
|
100000000000000000000000000000000000000000100000,
|
|
000000100000000000100000000000100000000000100000,
|
|
000000000000000000000000200000000000200000000000,
|
|
000000000000000000000000200000000000200000000000,
|
|
500000000000000000000000800000000000000000100000,
|
|
000000100000000000100000000000100000000000500000,
|
|
000000000000000000000000000000000000000000000000,
|
|
800000000000000000000000300000000000000000000000,
|
|
500000000000000000000000000000000000000000000000,
|
|
000000800000000000000000000000000000000000000000,
|
|
900000000000000000000000000000000000000000000000,
|
|
000000000000000000000000000000000000000000000008,
|
|
#GOGOEND
|
|
|
|
|
|
#END
|
|
|