Files
2023-06-15 19:15:39 -05:00

780 lines
17 KiB
Plaintext

//TJADB Project
TITLE:Slide
TITLEJA:ABC
SUBTITLE:--Goo Goo Dolls
BPM:110
WAVE:Slide.ogg
OFFSET:-2.244
DEMOSTART:36.016
COURSE:Oni
LEVEL:7
BALLOON:12
#START
#SCROLL 1.0272727272727273
,
,
,
,
100000100000200100000100200000000100000100200000,
100000100000200100000100200100000100000100200000,
100000100000200100000100200000000100000100200000,
100000100000200100000100200200000200000200200000,
100000100000200100000100200000000100000100200000,
100000100000200100000100200100000100000100200000,
100000100000200100000100200000000100000100200000,
100000100000200000000000100000100200000200100000,
100000100000100000100100000100000000100000100100,
000000000000000000000000100000100200000200100000,
100000000000000000000000000000000000000000000000,
#BPMCHANGE 111
#SCROLL 1.018018018018018
000000000000000000000100100000000000100000000000,
#BPMCHANGE 112.9
#SCROLL 1.0008857395925597
100000200000100200200100000200000100200100100000,
100000200000100200200100000200000100200200200000,
100000200000100200200100000100000100200100100000,
100000100000200000200000100000100000200000200000,
100000100000100000100000200000200000200000200000,
100000200000100200200100000100000100200100100000,
100000200000100200200100000100000100200200200000,
100000200000100200200100000100000100200100100000,
100000000000000000000000100000000000000000000000,
#BPMCHANGE 113
#SCROLL 1
100000000000000000000000100000000000200200100100,
100000100000200100000100200000000100000100200000,
100000100000200100000100200100000200100100200000,
100000100000200100000100200000000100000100200000,
100000100000200100000100200200000200000200200000,
100000100000200100000100200000000100000100200000,
100000100000200100000100200100000200100100200000,
100000100000200100000100200000000100000100200000,
#BPMCHANGE 112
#SCROLL 1.0089285714285714
100000100000200000000000100000100200000200100000,
#BPMCHANGE 109.5
#SCROLL 1.0319634703196348
100000100000100000100100000100000000100000100100,
#BPMCHANGE 110.8
#SCROLL 1.01985559566787
000000000000000000000000100000100200000200100000,
#BPMCHANGE 109.5
#SCROLL 1.0319634703196348
100000000000000000000000000000000000000000000000,
#BPMCHANGE 110
#SCROLL 1.0272727272727273
000000000000000000000100100000000000100000000000,
#BPMCHANGE 113
#SCROLL 1
100000200000100200200100000100000100200100100000,
100000200000100200200100000100000100200200200000,
100000200000100200200100000100000100200100100000,
100100000100100000100100000100000100100100100000,
500000000000000000000000000000000000000008000000,
100000200000100200200100000100000100200100100000,
100000200000100200200100000100000100200200200000,
100000200000100200200100000100000100200100100000,
700000000000000000000000000000000000000000000000,
800000000000000000000000100000101010100100100100,
100000100000200000100100100000000000200000000000,
100000100000200000100100100000100000200000100100,
100000100000200000100100100000100000200000100100,
100000100000200000100100100200100000200000100100,
100000100000200000100100100000000000200000000000,
100000100000200000100100100000100000200000000000,
300000000000000000000000300000000000000000000000,
300000000000300000000000300000000000000000000000,
500000000000000000000000000000000000000000000008,
#END
COURSE:Hard
LEVEL:4
STYLE:Double
BALLOON:12
SCOREINIT:900
#START P1
#SCROLL 1.0272727272727273
,
,
,
,
1010200010010120,
1010200010010120,
1010200010010102,
1010200011010110,
0202,
0202,
0202,
0000000010120210,
1,
,
1202,
#BPMCHANGE 111
#SCROLL 1.018018018018018
0000200110001000,
#BPMCHANGE 112.9
#SCROLL 1.0008857395925597
1000200101002000,
1000200101002000,
1000200101002000,
11,
11,
1000110101002000,
1000110101002000,
1000110101002000,
1,
#BPMCHANGE 113
#SCROLL 1
1000000010002211,
1010200010010120,
1010200010010120,
1010200010010120,
1010200010010120,
11201020,
11201020,
11201020,
#BPMCHANGE 112
#SCROLL 1.0089285714285714
1010200010120210,
#BPMCHANGE 109.5
#SCROLL 1.0319634703196348
1202,
#BPMCHANGE 110.8
#SCROLL 1.01985559566787
0000200010120210,
#BPMCHANGE 109.5
#SCROLL 1.0319634703196348
1,
#BPMCHANGE 110
#SCROLL 1.0272727272727273
0000000110001000,
#BPMCHANGE 113
#SCROLL 1
3000201101002000,
1000201101002000,
1000201101004000,
3,
,
1010200101012011,
1010200101012011,
1000200101002010,
7,
800000000000000000000000100000500000000008000000,
11201020,
10201120,
11211121,
11200040,
10201120,
10201120,
33,
30303300,
500000000000000000000000000000000000000000000008,
#END
#START P2
#SCROLL 1.0272727272727273
,
,
,
,
0202,
0202,
0202,
0202,
1010200010010120,
1010200010010120,
1010200010010120,
1010200010120210,
1202,
0000200010120210,
1,
#BPMCHANGE 111
#SCROLL 1.018018018018018
1000000110001000,
#BPMCHANGE 112.9
#SCROLL 1.0008857395925597
1000110101002000,
1000110101002000,
1000110101002000,
30201120,
1000200102101100,
1000200101002000,
1000200101002000,
1000200101002000,
11,
#BPMCHANGE 113
#SCROLL 1
1000000010002211,
11201020,
11201020,
11201020,
11201020,
1010200010010120,
1010200010010120,
1010200010010120,
#BPMCHANGE 112
#SCROLL 1.0089285714285714
1010200010120210,
#BPMCHANGE 109.5
#SCROLL 1.0319634703196348
1,
#BPMCHANGE 110.8
#SCROLL 1.01985559566787
,
#BPMCHANGE 109.5
#SCROLL 1.0319634703196348
1202,
#BPMCHANGE 110
#SCROLL 1.0272727272727273
0000200110001000,
#BPMCHANGE 113
#SCROLL 1
1000200101002010,
1000200101002010,
1000200101002010,
3,
,
1000200101002010,
1000200101002010,
1010200101012000,
7,
800000000000000000000000100000500000000008000000,
10201120,
11201020,
40001120,
1010201012102011,
11201020,
1010200110002000,
11201120,
12123300,
500000000000000000000000000000000000000000000008,
#END
STYLE:Single
BALLOON:12
SCOREINIT:710
SCOREDIFF:170
#START
#SCROLL 1.0272727272727273
,
,
,
,
100000100000200000000000100000000100000100200000,
100000100000200000000000100000000100000100200000,
100000100000200000000000100000000100000100200000,
100000100000200000000000100100000100000100100000,
100000100000200000000000100000000100000100200000,
100000100000200000000000100000000100000100200000,
100000100000200000000000100000000100000100200000,
100000100000200000000000100000100200000200100000,
100000100000100000100100000100000000100000100100,
000000000000000000000000100000100200000200100000,
100000000000000000000000000000000000000000000000,
#BPMCHANGE 111
#SCROLL 1.018018018018018
000000000000000000000100100000000000100000000000,
#BPMCHANGE 112.9
#SCROLL 1.0008857395925597
100000000000200000100100000100000000200000000000,
100000000000200000100100000100000000200000000000,
100000000000200000100100000100000000200000000000,
100000100000200000200000100000100000200000200000,
100000100000100000100000200000200000200000200000,
100000000000200000100100000100000000200000000000,
100000000000200000100100000100000000200000000000,
100000000000200000100100000100000000200000000000,
100000000000000000000000100000000000000000000000,
#BPMCHANGE 113
#SCROLL 1
100000000000000000000000100000000000200200100100,
100000100000200000000000100000000100000100200000,
100000100000200000000000100000000100000100200000,
100000100000200000000000100000000100000100200000,
100000100000200000000000100000000100000100200000,
100000100000200000000000100000000100000100200000,
100000100000200000000000100000000100000100200000,
100000100000200000000000100000000100000100200000,
#BPMCHANGE 112
#SCROLL 1.0089285714285714
100000100000200000000000100000100200000200100000,
#BPMCHANGE 109.5
#SCROLL 1.0319634703196348
100000100000100000100100000100000000100000100100,
#BPMCHANGE 110.8
#SCROLL 1.01985559566787
000000000000000000000000100000100200000200100000,
#BPMCHANGE 109.5
#SCROLL 1.0319634703196348
100000000000000000000000000000000000000000000000,
#BPMCHANGE 110
#SCROLL 1.0272727272727273
000000000000000000000100100000000000100000000000,
#BPMCHANGE 113
#SCROLL 1
300000000000200000100100000100000000200000000000,
100000000000200000100100000100000000200000000000,
100000000000200000100100000100000000400000000000,
300000000000000000000000000000000000000000000000,
000000000000000000000000000000000000000000000000,
100000100000200000000100000100000100200000100100,
100000100000200000000100000100000100200000100100,
100000100000200000000100000100000100200000000000,
700000000000000000000000000000000000000000000008,
000000000000000000000000100000500000008000000000,
100000100000200000000000100000000000200000000000,
100000100000200000000000100000000000200000000000,
100000100000200000100000100000100000200000100000,
100000100000200000100000100200100000200000100100,
100000100000200000000000100000000000200000000000,
100000100000200000000100100000000000200000000000,
300000000000000000000000300000000000000000000000,
300000000000300000000000300000000000000000000000,
500000000000000000000000000000000000000000000008,
#END
COURSE:Normal
LEVEL:3
STYLE:Double
BALLOON:12
SCOREINIT:1020
#START P1
,
,
,
,
1010100010010000,
1010100010010000,
1010100010010000,
1010100010010000,
1200,
1202,
1200,
0000000010110100,
1,
0000000010110100,
1202,
0000000110001000,
3000200101000000,
1000200101000000,
1000200101000000,
11110000,
11110000,
11100020,
11100020,
11100020,
01,
11,
1010200010010000,
1010100010010000,
1010100010010000,
1010100010010000,
10210020,
10210020,
10210020,
0000000010110100,
1202,
0202,
1,
0000000110001000,
1000200101000000,
1000000000001011,
1000200101000000,
3,
,
1000200101001000,
1000200101001000,
1000200101001000,
7,
800000000000000000000000500000000000000008000000,
11101020,
11101020,
31,
1011,
11101020,
11101020,
31,
10101100,
500000000000000000000000000000000000000000000008,
#END
#START P2
,
,
,
,
1200,
1202,
1200,
1202,
1010100010010000,
1010100010010000,
1010100010010000,
0000000010110100,
1202,
0200,
1,
0000000110001000,
11100020,
11100020,
11100020,
00002222,
00001111,
1000200101000000,
1000200101000000,
1000200101000000,
11,
01,
10210020,
10210020,
10210020,
10210020,
1010100010010000,
1010100010010000,
1010100010010000,
0000000010110100,
1,
0000000010110110,
1202,
0000000110001000,
1000000000001011,
1000200101000000,
1000200101000000,
3,
,
3004,
0304,
1000200101001000,
7,
800000000000000000000000500000000000000008000000,
10201110,
10201110,
31,
1011,
10201110,
10201110,
31,
10101100,
500000000000000000000000000000000000000000000008,
#END
STYLE:Single
BALLOON:12
SCOREINIT:880
SCOREDIFF:230
#START
000000000000000000000000000000000000000000000000,
000000000000000000000000000000000000000000000000,
000000000000000000000000000000000000000000000000,
000000000000000000000000000000000000000000000000,
100000100000100000000000100000000100000000000000,
100000100000100000000000100000000200000000000000,
100000100000100000000000100000000100000000000000,
100000100000100000000000100000000200000000000000,
100000100000100000000000100000000100000000000000,
100000100000100000000000100000000200000000000000,
100000100000100000000000100000000100000000000000,
000000000000000000000000100000100100000100000000,
100000000000000000000000000000000000000000000000,
000000000000000000000000100000100100000100000000,
100000000000000000000000000000000000000000000000,
000000000000000000000100100000000000100000000000,
300000000000200000000100000100000000200000000000,
100000000000200000000100000100000000000000000000,
100000000000200000000100000100000000200000000000,
100000100000100000100000000000000000000000000000,
100000100000100000100000000000000000000000000000,
100000000000200000000100000100000000200000000000,
100000000000200000000100000100000000000000000000,
100000000000200000000100000100000000200000000000,
100000100000100000100000000000000000000000000000,
100000100000100000100000000000000000000000000000,
100000100000100000000000100000000200000000200000,
100000100000100000000000100000000200000000000000,
100000100000100000000000100000000200000000200000,
100000100000100000000000100000000200000000000000,
100000100000100000000000100000000200000000200000,
100000100000100000000000100000000200000000000000,
100000100000100000000000100000000200000000200000,
100000100000100000000000100000100100000100000000,
100000000000000000000000000000000000000000000000,
000000000000000000000000100000100100000100100000,
100000000000000000000000000000000000000000000000,
000000000000000000000100100000000000100000000000,
100000000000200000000100000100000000100000000000,
100000000000200000000100000100000000000000000000,
100000000000200000000100000100000000200000000000,
300000000000000000000000000000000000000000000000,
000000000000000000000000000000000000000000000000,
100000000000200000000100000100000000100000000000,
100000000000200000000100000100000000100000100100,
100000000000200000000100000100000000200000000000,
700000000000000000000000000000000000000000000800,
000000000000000000000000500000000000000800000000,
100000000000200000000000100000100000200000000000,
100000000000200000000000100000100000200000000000,
300000000000000000000000100000000000000000000000,
100000000000000000000000100000000000100000000000,
100000000000200000000000100000100000200000000000,
100000000000200000000000100000100000200000000000,
300000000000000000000000100000000000000000000000,
300000000000300000000000300000000000000000000000,
500000000000000000000000000000000000000000000008,
#END
COURSE:Easy
LEVEL:4
STYLE:Double
SCOREINIT:1090
#START P1
,
,
,
,
1000200011000000,
10120,
1000200011000000,
10120,
1202,
1202,
1202,
1202,
3,
0011,
1,
0011,
30201100,
10102200,
10201100,
110,
0011,
30001110,
1110,
10001110,
1022,
2200,
1000100011000010,
1012,
1000200011000010,
1012,
1202,
1200,
1202,
1,
,
0012,
1,
0011,
3000200011000000,
10002201,
1000200011000000,
1,
1,
3000200011000000,
10002201,
1000200011000000,
500000000000000000000000000000000000000000000008,
,
3012,
1012,
11,
1,
10001100,
00001100,
1,
11,
500000000000000000000000000000000000000000000008,
#END
#START P2
,
,
,
,
1202,
1202,
1202,
1202,
1000200011000000,
1012,
1000200011000000,
1011,
3,
0011,
1,
0011,
30001110,
1110,
10001110,
1022,
2200,
30201100,
10102200,
10201100,
1100,
0011,
1202,
1200,
1202,
1200,
1000100011000010,
1012,
1000200011000010,
1,
,
0012,
1,
0011,
30001110,
1110,
10001110,
,
,
1011,
10201100,
1011,
500000000000000000000000000000000000000000000008,
,
30001100,
10001100,
1,
11,
1012,
1012,
11,
1,
500000000000000000000000000000000000000000000008,
#END
STYLE:Single
SCOREINIT:940
SCOREDIFF:280
#START
000000000000000000000000000000000000000000000000,
000000000000000000000000000000000000000000000000,
000000000000000000000000000000000000000000000000,
000000000000000000000000000000000000000000000000,
100000000000200000000000100100000000000000000000,
100000000000000000000000100000000000200000000000,
100000000000200000000000100100000000000000000000,
100000000000000000000000100000000000200000000000,
100000000000200000000000100100000000000000000000,
100000000000000000000000100000000000200000000000,
100000000000200000000000100100000000000000000000,
100000000000000000000000100000000000100000000000,
300000000000000000000000000000000000000000000000,
000000000000000000000000100000000000100000000000,
100000000000000000000000000000000000000000000000,
000000000000000000000000100000000000100000000000,
300000000000200000000000100000100000000000000000,
100000000000100000000000200000200000000000000000,
100000000000200000000000100000100000000000000000,
100000000000100000000000100000000000100000000000,
100000000000100000000000200000000000200000000000,
300000000000200000000000100000100000000000000000,
100000000000100000000000200000200000000000000000,
100000000000200000000000100000100000000000000000,
100000000000000000000000200000000000000000000000,
100000000000000000000000200000000000000000000000,
100000000000100000000000100100000000000000100000,
100000000000000000000000100000000000200000000000,
100000000000200000000000100100000000000000100000,
100000000000000000000000100000000000200000000000,
100000000000100000000000100100000000000000100000,
100000000000000000000000100000000000200000000000,
100000000000100000000000100100000000000000100000,
100000000000000000000000100000000000100000000000,
100000000000000000000000000000000000000000000000,
000000000000000000000000100000000000100000000000,
100000000000000000000000000000000000000000000000,
000000000000000000000000100000000000100000000000,
300000000000200000000000100100000000000000000000,
100000000000000000000000200000200000000000100000,
100000000000200000000000100100000000000000000000,
100000000000000000000000000000000000000000000000,
100000000000000000000000000000000000000000000000,
300000000000200000000000100100000000000000000000,
100000000000000000000000200000200000000000100000,
100000000000200000000000100100000000000000000000,
500000000000000000000000000000000000000000800000,
000000000000000000000000000000000000000000000000,
100000000000200000000000100000000000100000000000,
100000000000200000000000100000000000000000000000,
100000000000000000000000100000000000200000000000,
100000000000000000000000100000000000200000000000,
100000000000000000000000100000000000100000000000,
100000000000000000000000100000000000000000000000,
100000000000000000000000100000000000200000000000,
100000000000000000000000100000000000200000000000,
500000000000000000000000000000000000000000000008,
#END