Files
2023-06-15 19:15:39 -05:00

506 lines
12 KiB
Plaintext

//TJADB Project
TITLE:Sugar Lady
TITLEJA:Sugar Lady
SUBTITLE:--Alan Kuo
BPM:120
WAVE:Sugar Lady.ogg
OFFSET:-2.095
DEMOSTART:44.095
COURSE:Oni
LEVEL:7
SCOREINIT:590
SCOREDIFF:140
#START
,
1202,
0202,
1202,
0000200000002011,
#SECTION
#BRANCHSTART p,75,90
#N
1001200010012000,
1001200011022000,
1001200010012000,
1000201010022000,
#E
1001201010012000,
1001201012022000,
1001201010012000,
1000201010022000,
#M
1001201010012010,
1001201012022000,
1001201010012010,
1001201012022011,
#SECTION
#BRANCHSTART p,75,90
#N
1001200010012000,
1001200011022000,
1001200010012000,
10211010,
#E
1001201010012000,
1001201012022000,
1001201010012000,
1000201010011000,
#M
1001201010012010,
1001201012022000,
1001201010012010,
1000201010011000,
#SECTION
#BRANCHSTART p,75,90
#N
1010200011102000,
1110200011102000,
1010200011102000,
1110200011102000,
#E
1110200011102000,
1110200011102000,
1110200011102000,
1110200011102000,
#M
1110201011102000,
1110201011102000,
1110201011102010,
1110201011102000,
#SECTION
#BRANCHSTART p,75,90
#N
1010201011102000,
1110201011102000,
11201122,
11203040,
#E
1110201011102010,
1110201011102000,
1110200010102020,
11223040,
#M
1110201011102010,
1110201011102000,
1110201010102020,
11223040,
#GOGOSTART
#SECTION
#BRANCHSTART p,75,90
#N
1000201110222000,
1000201110201000,
1000201110222000,
1022202220101000,
#E
1000201110221020,
1000201111201011,
1000201110221000,
1022202220111000,
#M
1010201110221020,
1010201121201011,
1010201110221020,
1022102210221020,
#SECTION
#BRANCHSTART p,75,90
#N
1000201110222000,
1000201110201000,
1000201110222000,
1022202220004000,
#E
1000201110221000,
1000201111201011,
1000201110221000,
1022202220004000,
#M
1010201110221020,
1010201121201011,
1010201110221020,
1022102210004000,
#GOGOEND
#SECTION
#BRANCHSTART p,75,90
#N
1000110101011000,
1010110101000000,
1000110101011000,
1010110101011000,
#E
1000210101012000,
1010210101000000,
1000210101012000,
1010210101012000,
#M
1000210101012020,
1010210101000000,
1000210101012020,
1010210101012112,
#SECTION
#BRANCHSTART p,75,90
#N
1001200010012000,
1001200011022000,
1001200010012000,
3344,
#E
1001201010012000,
1001201012022000,
1001201010012000,
3344,
#M
1001201010012010,
1001201012022000,
1001201010012010,
3344,
#SECTION
#BRANCHSTART p,75,90
#N
1111002011110020,
1111002000104000,
1111002011110020,
1111002030003000,
#E
1111002011110020,
1111002010104000,
1111002011110020,
1111002030003000,
#M
1121012011210120,
1121012010104000,
1121012011210120,
1121002030003000,
#SECTION
#BRANCHSTART p,75,90
#N
1010200011102000,
1110200011102000,
1010200011102000,
1110200011102000,
#E
2222001011200011,
1120001111200020,
2222001011200011,
1120001111200020,
#M
2212021011200022,
1120002211200020,
2212021011200022,
1120002211200020,
#SECTION
#BRANCHSTART p,75,90
#N
1010201011102000,
1110201011102000,
11103344,
33443040,
#E
2222001011200011,
1120001111200020,
1111002030304040,
33443040,
#M
2212021011200022,
1120002211200020,
1121002030304040,
33443040,
#GOGOSTART
#SECTION
#BRANCHSTART p,75,90
#N
1000201110222000,
1000201110201000,
1000201110222000,
1022202220101000,
1000201110222000,
1000201110201000,
1000201110222000,
30403434,
#E
1000201110221000,
1000201111201011,
1000201110221000,
1022202220111000,
1000201110221000,
1000201111201011,
1000201110221000,
30403434,
#M
1010201110221020,
1010201121201011,
1010201110221020,
1022102210221020,
1010201110221020,
1010201121201011,
1010201110221020,
30403434,
#BRANCHEND
#GOGOEND
#END
COURSE:Hard
LEVEL:4
BALLOON:12,12
#START
000000000000000000000000000000000000000000000000,
100000000000200000000000000000000000200000000000,
000000000000200000000000000000000000000000000000,
100000000000200000000000000000000000200000000000,
000000000000200000000000000000000000000000000000,
100000000000200000100000100000100000200000000000,
100000000000200000100000000000100000200000000000,
100000000000200000100000100000100000200000000000,
100000000000100000000000100000000000000000000000,
100000000000200000100000100000100000200000000000,
100000000000200000100000000000100000200000000000,
100000000000200000100000100000100000200000000000,
300000000000300000000000300000000000000000000000,
100000000000200000000000100000200000000000100000,
200000200000000000100000200000200000000000000000,
100000000000200000000000100000200000000000100000,
200000200000000000100000200000200000000000000000,
100000000000200000000000100000200000000000100000,
200000200000000000100000200000200000000000000000,
100000000000200000000000200000200000200000000000,
700000000000000000000000000000000800000000000000,
#GOGOSTART
300000300000300000000000100000200000100000100000,
100000000000200000100000100000000000200000000000,
300000300000300000000000100000100000200000100000,
200000000000200000000000200000000000000000000000,
300000300000300000000000100000100000200000100000,
100000000000200000100000100000000000200000000000,
300000300000300000000000100000100000200000100000,
300000000000300000000000300000000000300000000000,
#GOGOEND
100000000000200000000000000000100000200000000000,
100000000000200000000000000000100000200000000000,
100000000000200000000000000000100000200000000000,
100000000000000000000000000000000000000000000000,
100000000000200000100000100000100000200000000000,
100000000000200000100000000000100000400000000000,
100000000000200000100000100000100000200000000000,
100000000000100000000000100000000000000000000000,
100000000000200000100000100000100000200000000000,
100000000000200000100000000000100000400000000000,
100000000000200000100000100000100000200000000000,
100000000000100000000000300000000000300000000000,
100000100000100000000000100000200000000000100000,
200000200000000000100000200000200000000000000000,
100000100000100000000000100000200000000000100000,
200000200000000000100000200000200000000000000000,
100000100000100000000000100000200000000000100000,
200000200000000000100000200000200000000000000000,
100000100000100000000000200000200000200000000000,
700000000000000000000000000000000800000000000000,
#GOGOSTART
300000300000300000000000100000200000100000100000,
100000000000200000100000100000000000200000000000,
300000300000300000000000100000100000200000100000,
200000000000200000000000200000000000000000000000,
300000300000300000000000100000100000200000100000,
100000000000200000100000100000000000200000000000,
300000300000300000000000100000100000200000100000,
300000000000300000000000300000300000300000300000,
#GOGOEND
#END
COURSE:Normal
LEVEL:4
BALLOON:7
#START
000000000000000000000000000000000000000000000000,
100000000000200000000000000000000000200000000000,
000000000000200000000000000000000000000000000000,
100000000000200000000000000000000000200000000000,
000000000000200000000000000000000000000000000000,
100000000000000000000000100000000000200000000000,
100000000000100000000000000000000000000000000000,
100000000000000000000000100000000000200000000000,
300000000000300000000000300000000000000000000000,
100000000000000000000000100000000000200000000000,
100000000000100000000000000000000000000000000000,
100000000000000000000000100000000000200000000000,
300000000000300000000000300000000000000000000000,
100000100000100000000000200000200000000000000000,
200000200000000000000000200000000000000000000000,
100000100000100000000000200000200000000000000000,
200000200000000000000000200000000000000000000000,
100000100000100000000000200000200000000000000000,
200000200000000000000000200000000000000000000000,
100000100000100000000000200000000000200000000000,
700000000000000000000000000000000800000000000000,
#GOGOSTART
100000100000100000000000300000000000300000000000,
100000000000200000000000100000000000000000000000,
100000100000100000000000300000000000300000000000,
200000000000200000000000200000000000000000000000,
100000100000100000000000300000000000300000000000,
100000000000200000000000100000000000000000000000,
100000100000100000000000300000000000300000000000,
300000000000300000000000300000000000300000000000,
#GOGOEND
300000000000200000000000000000000000200000000000,
100000000000200000000000000000000000200000000000,
100000000000200000000000000000000000200000000000,
100000000000000000000000000000000000000000000000,
100000000000000000000000100000000000200000000000,
100000000000100000000000000000000000400000000000,
100000000000000000000000100000000000200000000000,
100000000000100000000000100000000000000000000000,
100000000000000000000000100000000000200000000000,
100000000000100000000000000000000000400000000000,
100000000000000000000000100000000000200000000000,
100000000000000000000000300000000000300000000000,
100000100000100000000000200000200000000000000000,
200000200000000000000000200000000000000000000000,
100000100000100000000000200000200000000000000000,
200000200000000000000000200000000000000000000000,
100000100000100000000000200000200000000000000000,
200000200000000000000000200000000000000000000000,
100000100000100000000000200000000000200000000000,
#GOGOSTART
100000100000100000000000300000000000300000000000,
100000000000200000000000100000000000000000000000,
100000100000100000000000300000000000300000000000,
200000000000200000000000200000000000000000000000,
100000100000100000000000300000000000300000000000,
100000000000200000000000100000000000000000000000,
100000100000100000000000300000000000300000000000,
300000000000300000000000300000000000300000000000,
#GOGOEND
#END
COURSE:Easy
LEVEL:2
#START
000000000000000000000000000000000000000000000000,
100000000000000000000000100000000000000000000000,
100000000000000000000000000000000000000000000000,
100000000000000000000000100000000000000000000000,
100000000000000000000000000000000000000000000000,
100000000000000000000000100000000000000000000000,
100000000000000000000000000000000000400000000000,
100000000000000000000000100000000000000000000000,
100000000000000000000000000000000000000000000000,
100000000000000000000000100000000000000000000000,
100000000000000000000000000000000000400000000000,
100000000000000000000000100000000000000000000000,
300000000000000000000000000000000000000000000000,
100000000000100000000000000000000000000000000000,
200000000000000000000000200000000000000000000000,
100000000000100000000000000000000000000000000000,
200000000000000000000000200000000000000000000000,
100000000000100000000000000000000000000000000000,
200000000000000000000000200000000000000000000000,
100000000000100000000000500000000000000000000000,
000000000000000000000080000000000000000000000000,
#GOGOSTART
300000000000000000000000100000000000200000000000,
100000000000000000000000000000000000000000000000,
300000000000000000000000100000000000200000000000,
100000000000000000000000000000000000000000000000,
300000000000000000000000100000000000200000000000,
100000000000000000000000000000000000000000000000,
300000000000000000000000100000000000200000000000,
300000000000300000000000300000000000000000000000,
#GOGOEND
100000000000000000000000200000000000000000000000,
100000000000000000000000200000000000000000000000,
100000000000000000000000200000000000000000000000,
100000000000000000000000000000000000000000000000,
100000000000000000000000100000000000000000000000,
100000000000000000000000000000000000400000000000,
100000000000000000000000100000000000000000000000,
100000000000000000000000000000000000000000000000,
100000000000000000000000100000000000000000000000,
100000000000000000000000000000000000400000000000,
100000000000000000000000100000000000000000000000,
300000000000000000000000300000000000000000000000,
100000000000100000000000000000000000000000000000,
200000000000000000000000200000000000000000000000,
100000000000100000000000000000000000000000000000,
200000000000000000000000200000000000000000000000,
100000000000100000000000000000000000000000000000,
200000000000000000000000200000000000000000000000,
100000000000100000000000500000000000000000000000,
000000000000000000000080000000000000000000000000,
#GOGOSTART
300000000000000000000000100000000000200000000000,
100000000000000000000000000000000000000000000000,
300000000000000000000000100000000000200000000000,
100000000000000000000000000000000000000000000000,
300000000000000000000000100000000000200000000000,
100000000000000000000000000000000000000000000000,
300000000000000000000000100000000000200000000000,
300000000000300000000000300000000000300000000000,
#GOGOEND
#END