Files
2023-06-15 19:15:39 -05:00

245 lines
8.6 KiB
Plaintext

//TJADB Project
TITLE:Sunao ni Naretara
TITLEJA:素直になれたら
SUBTITLE:--JUJU
BPM:98
WAVE:Sunao ni Naretara.ogg
OFFSET:-9.922
DEMOSTART:87.983
COURSE:Oni
LEVEL:3
SCOREINIT:860
SCOREDIFF:220
#START
200000000000200000200000000000000000200000000000,
200000000000200000200000000000000000200000000000,
200000000000000000200000000000000000200000000000,
200000000200000000000000200000000200000000000000,
200000000000200000200000000000000000200000000000,
200000000000200000200000000000000000200000000000,
200000000000200000000000000000000000200000000000,
200000000000000000000000000000000000000000000000,
#GOGOSTART
200000100200000200200100000000100100200000100000,
200000000200100000000100200000100000200000100100,
200200100000200200100100000000100100200200100000,
100000000200100000000200100000000000200000100100,
200000100000200000100000000000100000200000000000,
300000000000400000000000300000000000400000100000,
200000100000000000200000000000100000200000100000,
100100000200200000100100000200200000100200000000,
#GOGOEND
100000000000200000100000000000100000200000000000,
100000000000200000000000100000100000200000000000,
100000000000200000100000000000100000200000000000,
100000000000200000000000100000100000200000000000,
100000000000200000100000000000100000200100000100,
000100000200000200000100000000100000200000000000,
100000000000200000000000100000000000200000000000,
200000000000200000000000200000000000000000100100,
100000000100200000100100100000000100200000100100,
100000000100200000100100100000100000200000100100,
100000000100200000100100100000000100200000100100,
100000000100200000100100200000100100200000000000,
100000000200000000100100100000000200000000100100,
200000100200000100000200100000000000200000100000,
100000000100200000100000100000000100200000100000,
300000400000600000000000000000000008000000000000,
#GOGOSTART
200000100200000200200100000000100100200000100000,
200000000200100000000100200000100000200000100100,
200200100000200200100100000000100100200200100000,
100000000200100000000200100000000000200000100100,
200000100000200000100000000000100000200000000000,
300000000000400000000000300000000000400000100000,
200000100000000000200000000000100000200000100000,
100100000200200000100100000200200000100200000000,
#GOGOEND
#END
COURSE:Hard
LEVEL:3
SCOREINIT:920
SCOREDIFF:260
#START
200000000000200000200000000000000000200000000000,
200000000000200000200000000000000000200000000000,
200000000000000000200000000000000000200000000000,
200000000200000000000000200000000200000000000000,
200000000000200000200000000000000000200000000000,
200000000000200000200000000000000000200000000000,
200000000000200000000000000000000000200000000000,
200000000000000000000000000000000000000000000000,
#GOGOSTART
100000000100100000100000000000100000200000100000,
100000000100100000000100100000100000200000000000,
100000000100100000100000000000100000200000100000,
100000000100100000000100100000100000200000000000,
100000000100100000100000000000100000200000000000,
300000000000400000000000300000000000400000100000,
100000100000000000100000000000100000200000100000,
100100000100100000100100000100100000100100000000,
#GOGOEND
100000000000200000100000000000100000200000000000,
100000000000200000000000100000100000200000000000,
100000000000200000100000000000100000200000000000,
100000000000200000000000100000000000000000000000,
100000000000200000100000000000100000200000000000,
100000000000200000000000100000100000200000000000,
100000000000200000100000000000100000200000000000,
100000000000200000000000100000000000000000000000,
100000000200000000100000000000100000200000100100,
100000000200000000100000100000000000200000000000,
100000000200000000100000000000100000200000100100,
100000000200000000100000100000100000200000000000,
100000000200000000100000000000100000200000100100,
100000000200000000100000100000000000200000000000,
100000000200000000100000000000100000200000100000,
300000300000600000000000000000000800000000000000,
#GOGOSTART
100000000100100000100000000000100000200000100100,
100000000100100000000100100000100000200000100100,
100000000100100000100000000000100000200000100100,
100000000100100000000100100000100000200000100100,
100000100000200000100000000000100000200000000000,
300000000000400000000000300000000000400000000000,
100000100000000000100000000000100000200000100000,
100100000200200000100100000200200000100100000000,
#GOGOEND
#END
COURSE:Normal
LEVEL:3
SCOREINIT:1130
SCOREDIFF:400
#START
200000000000000000200000000000000000000000000000,
200000000000200000200000000000000000000000000000,
200000000000000000200000000000000000000000000000,
200000000000000000000000200000000000000000000000,
200000000000000000200000000000000000000000000000,
200000000000200000200000000000000000000000000000,
200000000000200000000000000000000000200000000000,
200000000000000000000000000000000000000000000000,
#GOGOSTART
100000000000100000100000000000000000200000000000,
100000000000100000000000100000000000000000000000,
100000000000100000100000000000000000200000000000,
200000000000200000000000200000000000000000000000,
100000000000100000100000000000000000200000000000,
100000000000200000000000100000000000200000000000,
100000000000100000100000000000000000200000000000,
300000000000000000000000000000000000000000000000,
#GOGOEND
100000000000200000000000000000000000200000000000,
100000000000100000000000200000000000000000000000,
100000000000200000000000000000000000200000000000,
100000000000100000000000200000000000000000000000,
100000000000200000000000000000000000200000000000,
100000000000100000000000200000000000000000000000,
100000000000200000000000100000000000200000000000,
100000000000100000000000200000000000000000000000,
100000000000000000000000100000000000200000000000,
100000000000100000000000100000000000000000000000,
100000000000000000000000100000000000200000000000,
100000000000200000000000200000000000000000000000,
100000000000000000000000100000000000200000000000,
100000000000000000000000100000000000200000000000,
100000000000200000000000100000000000200000000000,
100000000000500000000000000080000000000000000000,
#GOGOSTART
100000000000100000100000000000000000200000000000,
100000000000100000000000100000000000000000000000,
100000000000100000100000000000000000200000000000,
200000000000200000000000200000000000000000000000,
100000000000100000100000000000000000200000000000,
100000000000200000000000100000000000200000000000,
100000000000100000100000000000000000200000000000,
300000000000300000300000000000300000300000000000,
#GOGOEND
#END
COURSE:Easy
LEVEL:3
SCOREINIT:1130
SCOREDIFF:570
#START
200000000000000000000000000000000000000000000000,
200000000000000000000000200000000000000000000000,
200000000000000000000000000000000000000000000000,
200000000000000000000000200000000000000000000000,
200000000000000000000000000000000000000000000000,
200000000000000000000000200000000000000000000000,
200000000000000000000000000000000000000000000000,
200000000000000000000000000000000000000000000000,
#GOGOSTART
100000000000000000100000000000000000000000000000,
200000000000200000000000200000000000000000000000,
100000000000000000100000000000000000000000000000,
200000000000200000000000200000000000000000000000,
100000000000000000100000000000000000000000000000,
100000000000100000000000100000000000000000000000,
100000000000000000100000000000000000000000000000,
300000000000000000000000000000000000000000000000,
#GOGOEND
100000000000200000000000000000000000200000000000,
100000000000200000000000000000000000000000000000,
100000000000100000000000100000000000000000000000,
200000000000200000000000200000000000000000000000,
100000000000200000000000000000000000200000000000,
100000000000200000000000000000000000000000000000,
100000000000100000000000100000000000000000000000,
200000000000200000000000200000000000000000000000,
100000000000000000000000200000000000000000000000,
100000000000100000000000100000000000000000000000,
100000000000000000000000200000000000000000000000,
200000000000200000000000200000000000000000000000,
100000000000000000000000200000000000000000000000,
100000000000000000000000200000000000000000000000,
100000000000000000000000100000000000100000000000,
100000000000500000000000000080000000000000000000,
#GOGOSTART
100000000000000000100000000000000000000000000000,
100000000000100000000000100000000000000000000000,
100000000000000000100000000000000000000000000000,
200000000000200000000000200000000000000000000000,
100000000000000000100000000000000000000000000000,
100000000000200000000000100000000000200000000000,
100000000000000000100000000000000000000000000000,
300000000000000000000000000000000000000000000000,
#GOGOEND
#END