Files
2023-01-17 00:45:18 -05:00

319 lines
5.9 KiB
Plaintext

//TJADB Project
TITLE:Super Star
TITLEJA:Super Star
SUBTITLE:--S.H.E.
SUBTITLEJA:「スーパーマリオ オデッセイ」より
BPM:92
WAVE:Super Star.ogg
OFFSET:-4.116
DEMOSTART:34.769
COURSE:Oni
LEVEL:7
BALLOON:12,12
SCOREINIT:1170
SCOREDIFF:290
#START
100000100000200000100000100000100000200000000000,
#BPMCHANGE 91.9
100000100000200000100000100000100000200000000000,
100000100000200000100000100000100000200000000000,
#BPMCHANGE 91.8
100000100000200000200200100200100000200000000000,
100000100000200000200000100000000000200000000000,
100000100000200000200000100000000000200000000000,
#BPMCHANGE 92.2
100000100000200000200200100000000000200000000000,
#BPMCHANGE 91.9
100000100000200000200200100000100000200000000000,
#BPMCHANGE 93
100000100000200000100100
#BPMCHANGE 91.3
100000100000200000100000,
#BPMCHANGE 92.2
100000100000200000100100100000100000200000000000,
#BPMCHANGE 92.3
100000100000200000100100100000100000200000100000,
#BPMCHANGE 92
100000100000200000100000200200200200100100100100,
#GOGOSTART
#BPMCHANGE 91.5
100000100100200000100000200200100000200000100000,
#BPMCHANGE 92.5
100000100100200200100000200000200200200000200000,
#BPMCHANGE 91.7
100000100100200000100000100000100100200200100000,
100000100100
#BPMCHANGE 95
200000100100
#BPMCHANGE 94.5
100000100100
#BPMCHANGE 90
200000100100,
#BPMCHANGE 91.3
100000100100200000100000200200100000200000100000,
#BPMCHANGE 91.8
100000100100200200100000200000200200200000200000,
#BPMCHANGE 92.6
100000100100200000100000100000100100200200100000,
#BPMCHANGE 91.4
700000000000000000000000000000800000000000000000,
#BPMCHANGE 92.4
100000100100200000100000200200100000200000100000,
#BPMCHANGE 92
100000100100200200100000200000200200200000200000,
#BPMCHANGE 91.3
100000100100200000100000100000100100200200100000,
#BPMCHANGE 92
100000100100200000100100100000100100200000100100,
#BPMCHANGE 92.5
100000100100200000100000200200100000200000100000,
#BPMCHANGE 92
100000100100200200100000200000200200200000200000,
100000100100200000100000100000100100200200100000,
#BPMCHANGE 90.7
700000000000000000000000000000800000000000000000,
400000000000000000000000000000000000000000000000,
#GOGOEND
#END
COURSE:Hard
LEVEL:5
BALLOON:10,12
SCOREINIT:1410
SCOREDIFF:400
#START
10211120,
#BPMCHANGE 91.9
10211120,
10211120,
#BPMCHANGE 91.8
1000201010111000,
10221020,
10221020,
#BPMCHANGE 92.2
11222020,
#BPMCHANGE 91.9
11222010,
#BPMCHANGE 93
1022
#BPMCHANGE 91.3
1020,
#BPMCHANGE 92.2
10221020,
#BPMCHANGE 92.3
11222020,
#BPMCHANGE 92
11222000,
#GOGOSTART
#BPMCHANGE 91.5
11211120,
#BPMCHANGE 92.5
11211120,
#BPMCHANGE 91.7
11201122,
500000000000
#BPMCHANGE 95
000000000000
#BPMCHANGE 94.5
000008000000
#BPMCHANGE 90
000000000000,
#BPMCHANGE 91.3
11211120,
#BPMCHANGE 91.8
11211120,
#BPMCHANGE 92.6
11201122,
#BPMCHANGE 91.4
70000800,
#BPMCHANGE 92.4
11211120,
#BPMCHANGE 92
11211120,
#BPMCHANGE 91.3
11201121,
#BPMCHANGE 92
500000000000000000000000000008000000000000000000,
#BPMCHANGE 92.5
1010201011102000,
#BPMCHANGE 92
1010201011102000,
1110200011102020,
#BPMCHANGE 90.7
90000800,
#GOGOEND
#END
COURSE:Normal
LEVEL:5
BALLOON:5,6
SCOREINIT:2100
SCOREDIFF:790
#START
10201110,
#BPMCHANGE 91.9
1210,
10201110,
#BPMCHANGE 91.8
1210,
1110,
1110,
#BPMCHANGE 92.2
1120,
#BPMCHANGE 91.9
1122,
#BPMCHANGE 93
11
#BPMCHANGE 91.3
10,
#BPMCHANGE 92.2
1110,
#BPMCHANGE 92.3
1120,
#BPMCHANGE 92
1130,
#GOGOSTART
#BPMCHANGE 91.5
10201110,
#BPMCHANGE 92.5
1210,
#BPMCHANGE 91.7
1012,
500000000000
#BPMCHANGE 95
000000000000
#BPMCHANGE 94.5
000008000000
#BPMCHANGE 90
000000000000,
#BPMCHANGE 91.3
10201110,
#BPMCHANGE 91.8
1210,
#BPMCHANGE 92.6
1012,
#BPMCHANGE 91.4
70000800,
#BPMCHANGE 92.4
10201110,
#BPMCHANGE 92
1210,
#BPMCHANGE 91.3
1012,
#BPMCHANGE 92
500000000000000000000000000008000000000000000000,
#BPMCHANGE 92.5
10201110,
#BPMCHANGE 92
1210,
1012,
#BPMCHANGE 90.7
90000800,
#GOGOEND
#END
COURSE:Easy
LEVEL:3
BALLOON:4,5
SCOREINIT:1640
SCOREDIFF:1050
#START
100000000000000000000000100000000000000000000000,
#BPMCHANGE 91.9
100000000000100000000000100000000000000000000000,
100000000000000000000000100000000000000000000000,
#BPMCHANGE 91.8
100000000000100000000000100000000000000000000000,
100000000000000000000000100000000000000000000000,
100000000000000000000000100000000000000000000000,
#BPMCHANGE 92.2
100000000000100000000000100000000000000000000000,
#BPMCHANGE 91.9
100000000000100000000000100000000000000000000000,
#BPMCHANGE 93
200000000000000000000000
#BPMCHANGE 91.3
200000000000000000000000,
#BPMCHANGE 92.2
200000000000000000000000200000000000000000000000,
#BPMCHANGE 92.3
200000000000200000000000200000000000000000000000,
#BPMCHANGE 92
200000000000000000000000300000000000000000000000,
#GOGOSTART
#BPMCHANGE 91.5
100000000000000000000000100000000000100000000000,
#BPMCHANGE 92.5
100000000000000000000000200000000000000000000000,
#BPMCHANGE 91.7
100000000000000000000000100000000000100000000000,
500000000000
#BPMCHANGE 95
000000000000
#BPMCHANGE 94.5
000008000000
#BPMCHANGE 90
000000000000,
#BPMCHANGE 91.3
100000000000000000000000100000000000100000000000,
#BPMCHANGE 91.8
100000000000000000000000200000000000000000000000,
#BPMCHANGE 92.6
100000000000000000000000100000000000100000000000,
#BPMCHANGE 91.4
70000800,
#BPMCHANGE 92.4
100000000000000000000000100000000000100000000000,
#BPMCHANGE 92
100000000000000000000000200000000000000000000000,
#BPMCHANGE 91.3
100000000000000000000000100000000000100000000000,
#BPMCHANGE 92
500000000000000000000000000008000000000000000000,
#BPMCHANGE 92.5
100000000000000000000000100000000000100000000000,
#BPMCHANGE 92
100000000000000000000000200000000000000000000000,
100000000000000000000000100000000000100000000000,
#BPMCHANGE 90.7
90000800,
#GOGOEND
#END