Files
2023-06-15 19:15:39 -05:00

225 lines
4.8 KiB
Plaintext

//TJADB Project
TITLE:Synchronized Love
TITLEJA:Angelic Angel
SUBTITLE:--Joe Rinoie
SUBTITLEJA:μ's 映画「ラブライブ!The School Idol Movie」より
BPM:124
WAVE:Synchronized Love.ogg
OFFSET:-2.553
DEMOSTART:79.972
COURSE:Oni
LEVEL:6
#START
,
,
,
,
,
,
,
0101,
0000100011111000,
0101,
0000100011111000,
0101,
0000100011111000,
0101,
1111,
3000000011111000,
#BRANCHSTART p,75,90
#N
0112,
10201120,
1112,
10201120,
11121112,
11111112,
11121112,
11112020,
0112,
1000200011102000,
1112,
1000200011102000,
12121112,
1010101011101020,
12121112,
1010101022202000,
1010202011101020,
1010202011101010,
1010202011101020,
1010202011101010,
1020102011111020,
1020102011111020,
1111102011111020,
1113,
00111220,
00111220,
00111222,
11111220,
00111220,
00111220,
00111222,
11111220,
30003003,
01221122,
30003003,
01221122,
500000000000000000000000000000000000000000000008,
#E
0112,
10201120,
1112,
10201120,
11121112,
11111112,
11121112,
11112020,
0000100011102000,
1000200011102000,
1000100011102000,
1000200011102000,
1020102011101020,
1010101011101020,
1020102011101020,
1010101022202000,
1010221010111000,
1010221010111000,
1010221010111020,
1010221010111020,
1020102011111020,
1020102011111020,
1111102011111020,
1113,
00111222,
12111222,
12111222,
11111220,
00111222,
12111222,
12111222,
11111220,
30003003,
01221122,
30003003,
01221122,
500000000000000000000000000000000000000000000008,
#M
0112,
10201120,
1112,
10201120,
11121112,
11111112,
11121112,
11112020,
0000102011101020,
1010101011101020,
1010102011101020,
1010101011101020,
1020102011101020,
1010101011101020,
1020102011101020,
1010101022202020,
1010111110111020,
1010111110111020,
1010111110222020,
1010111110222020,
1022102011111020,
1022102011111020,
1111102011111020,
1113,
0000101010111020,
1010101010111020,
1010101010111011,
1011101110202020,
1020102010111020,
1020102010111020,
1020102010111011,
1011101110202000,
30003003,
0022102010202000,
30003003,
0022102010202020,
500000000000000000000000000000000000000000000008,
#BRANCHEND
#END
COURSE:Hard
LEVEL:4
SCOREINIT:860
SCOREDIFF:210
#START
000000000000000000000000000000000000000000000000,
000000000000000000000000000000000000000000000000,
000000000000000000000000000000000000000000000000,
000000000000000000000000000000000000000000000000,
000000000000000000000000000000000000000000000000,
000000000000000000000000000000000000000000000000,
000000000000000000000000000000000000000000000000,
000000000000100000000000000000000000100000000000,
000000000000100000000000100100100100100000000000,
000000000000100000000000000000000000100000000000,
000000000000100000000000100100100100100000000000,
000000000000100000000000000000000000100000000000,
000000000000100000000000100100100100100000000000,
000000000000100000000000000000000000100000000000,
100000000000100000000000100000000000100000000000,
300000000000000000000000100100100100100000000000,
000000000000100000000000100000000000200000000000,
100000000000200000000000100000100000200000000000,
100000000000100000000000100000000000200000000000,
100000000000200000000000100000100000200000000000,
100000100000100000200000100000100000100000200000,
100000100000100000100000100000100000100000200000,
100000100000100000200000100000100000100000200000,
100000100000100000100000200000000000200000000000,
000000000000100000000000100000000000200000000000,
100000000000200000000000100100100000200000000000,
100000000000100000000000100000000000200000000000,
100000000000200000000000100100100000200000000000,
100000200000100000200000100000100000100000200000,
100000100000100000100000100100100000100000200000,
100000200000100000200000100000100000100000200000,
100000100000100000100000200200200000200000000000,
100000100000200000200000100100100000100000200000,
100000100000200000200000100100100000100000100000,
100000100000200000200000100100100000100000200000,
100000100000200000200000100100100000100000100000,
100000200000100000200000100100100100100000200000,
100000200000100000200000100100100100100000200000,
100100100100100000200000100100100100100000200000,
100000000000100000000000100000000000300000000000,
000000000000100000100000100000200000200000000000,
000000000000100000100000100000200000200000000000,
000000000000100000100000100000200000200000200000,
100000100000100000100000100000200000200000000000,
000000000000100000100000100000200000200000000000,
000000000000100000100000100000200000200000000000,
000000000000100000100000100000200000200000200000,
100000100000100000100000100000200000200000000000,
300000000000000000000000300000000000000000300000,
000000100000200000200000100000100000200000200000,
300000000000000000000000300000000000000000300000,
000000100000200000200000100000100000200000200000,
500000000000000000000000000000000000000000000800,
#END