forked from ESE/ESE
546 lines
5.1 KiB
Plaintext
546 lines
5.1 KiB
Plaintext
//TJADB Project
|
|
TITLE:TRAIN-TRAIN -Old Audio-
|
|
TITLEJA:TRAIN-TRAIN -Old Audio-
|
|
SUBTITLE:--The Blue Hearts
|
|
WAVE:TRAIN-TRAIN -Old Audio-.ogg
|
|
BPM:170
|
|
OFFSET:-3.132
|
|
DEMOSTART:74.884
|
|
|
|
COURSE:Oni
|
|
LEVEL:5
|
|
SCOREINIT:520
|
|
SCOREDIFF:138
|
|
|
|
|
|
#START
|
|
|
|
|
|
2,
|
|
20220000,
|
|
2,
|
|
20220000,
|
|
2,
|
|
20220000,
|
|
2,
|
|
20220000,
|
|
2,
|
|
20220000,
|
|
2,
|
|
20220000,
|
|
2,
|
|
20220000,
|
|
22,
|
|
20220000,
|
|
22,
|
|
20020020,
|
|
2,
|
|
2,
|
|
20020020,
|
|
#BPMCHANGE 188
|
|
3333,
|
|
10010010,
|
|
10010010,
|
|
10010010,
|
|
500000000000000000000000000000000008000000000000,
|
|
10010010,
|
|
10010010,
|
|
10010010,
|
|
1020102010201111,
|
|
10210120,
|
|
10210120,
|
|
10210120,
|
|
10210120,
|
|
10210120,
|
|
10210120,
|
|
10210120,
|
|
1000201000101110,
|
|
10210120,
|
|
11210120,
|
|
10210120,
|
|
11210120,
|
|
10210120,
|
|
11210120,
|
|
10210120,
|
|
1010201000101110,
|
|
11201122,
|
|
10110000,
|
|
11201122,
|
|
10110000,
|
|
11201122,
|
|
10110110,
|
|
30030030,
|
|
1110111011111111,
|
|
|
|
#GOGOSTART
|
|
12121212,
|
|
1111,
|
|
12121212,
|
|
10101210,
|
|
12121212,
|
|
12121210,
|
|
12121010,
|
|
1130,
|
|
|
|
#GOGOEND
|
|
10010010,
|
|
10010010,
|
|
10010010,
|
|
500000000000000000000000000000000008000000000000,
|
|
10010010,
|
|
10010010,
|
|
10010010,
|
|
1020102010201111,
|
|
10210120,
|
|
10210120,
|
|
10210120,
|
|
10210120,
|
|
10210120,
|
|
10210120,
|
|
10210120,
|
|
1000201000101110,
|
|
10210120,
|
|
11210120,
|
|
10210120,
|
|
11210120,
|
|
10210120,
|
|
11210120,
|
|
10210120,
|
|
1010201000101110,
|
|
11201122,
|
|
10110000,
|
|
11201122,
|
|
10110000,
|
|
11201122,
|
|
10110110,
|
|
30030030,
|
|
1110111011111111,
|
|
|
|
#GOGOSTART
|
|
12121212,
|
|
1111,
|
|
12121210,
|
|
10101210,
|
|
12121212,
|
|
12121210,
|
|
12121010,
|
|
1130,
|
|
12121212,
|
|
12121210,
|
|
12121212,
|
|
10101210,
|
|
12121212,
|
|
12121210,
|
|
12121010,
|
|
10103011,
|
|
|
|
#GOGOEND
|
|
3,
|
|
|
|
|
|
#END
|
|
|
|
|
|
COURSE:Hard
|
|
LEVEL:5
|
|
SCOREINIT:480
|
|
SCOREDIFF:133
|
|
|
|
|
|
#START
|
|
|
|
|
|
2,
|
|
20220000,
|
|
2,
|
|
20220000,
|
|
2,
|
|
20220000,
|
|
2,
|
|
20220000,
|
|
2,
|
|
20220000,
|
|
2,
|
|
20220000,
|
|
2,
|
|
20220000,
|
|
22,
|
|
20220000,
|
|
22,
|
|
20020020,
|
|
2,
|
|
2,
|
|
20020020,
|
|
#BPMCHANGE 188
|
|
3333,
|
|
10010010,
|
|
10010010,
|
|
10010010,
|
|
500000000000000000000000000000000008000000000000,
|
|
10010010,
|
|
10010010,
|
|
10010010,
|
|
500000000000000000000000000000000008000000000000,
|
|
10210120,
|
|
10210120,
|
|
10210120,
|
|
10210120,
|
|
10210120,
|
|
10210120,
|
|
10210120,
|
|
10210111,
|
|
10210120,
|
|
11210120,
|
|
10210120,
|
|
11210120,
|
|
10210120,
|
|
11210120,
|
|
10210120,
|
|
11210000,
|
|
11201122,
|
|
10110000,
|
|
11201122,
|
|
10110000,
|
|
11201122,
|
|
10110110,
|
|
30030030,
|
|
10101111,
|
|
|
|
#GOGOSTART
|
|
1111,
|
|
10101210,
|
|
1111,
|
|
10101212,
|
|
1111,
|
|
10101210,
|
|
1111,
|
|
1130,
|
|
|
|
#GOGOEND
|
|
10010010,
|
|
10010010,
|
|
10010010,
|
|
500000000000000000000000000000000008000000000000,
|
|
10010010,
|
|
10010010,
|
|
10010010,
|
|
500000000000000000000000000000000008000000000000,
|
|
10210120,
|
|
10210120,
|
|
10210120,
|
|
10210120,
|
|
10210120,
|
|
10210120,
|
|
10210120,
|
|
10210111,
|
|
10210120,
|
|
11210120,
|
|
10210120,
|
|
11210120,
|
|
10210120,
|
|
11210120,
|
|
10210120,
|
|
11210000,
|
|
11201122,
|
|
10110000,
|
|
11201122,
|
|
10110000,
|
|
11201122,
|
|
10110110,
|
|
30030030,
|
|
10101111,
|
|
|
|
#GOGOSTART
|
|
1111,
|
|
10101210,
|
|
1111,
|
|
10101212,
|
|
1111,
|
|
10101210,
|
|
1111,
|
|
1130,
|
|
1111,
|
|
10101210,
|
|
1111,
|
|
10101212,
|
|
1111,
|
|
10101210,
|
|
1111,
|
|
10103011,
|
|
|
|
#GOGOEND
|
|
3,
|
|
|
|
|
|
#END
|
|
|
|
|
|
COURSE:Normal
|
|
LEVEL:5
|
|
SCOREINIT:510
|
|
SCOREDIFF:143
|
|
|
|
|
|
#START
|
|
|
|
|
|
2,
|
|
2200,
|
|
2,
|
|
2200,
|
|
2,
|
|
2200,
|
|
2,
|
|
2200,
|
|
2,
|
|
2200,
|
|
2,
|
|
2200,
|
|
2,
|
|
2200,
|
|
22,
|
|
20020020,
|
|
22,
|
|
20020020,
|
|
22,
|
|
22,
|
|
20020020,
|
|
#BPMCHANGE 188
|
|
3333,
|
|
1011,
|
|
1011,
|
|
1011,
|
|
500000000000000000000000000000000008000000000000,
|
|
1011,
|
|
1011,
|
|
1011,
|
|
500000000000000000000000000000000008000000000000,
|
|
1202,
|
|
1202,
|
|
1202,
|
|
1202,
|
|
1202,
|
|
1202,
|
|
1202,
|
|
1202,
|
|
11100020,
|
|
11100020,
|
|
11100020,
|
|
11100020,
|
|
11100020,
|
|
11100020,
|
|
11100020,
|
|
11100020,
|
|
11101110,
|
|
10110000,
|
|
11101110,
|
|
10110000,
|
|
11101110,
|
|
10101110,
|
|
10010010,
|
|
3333,
|
|
|
|
|
|
#GOGOSTART
|
|
1111,
|
|
1112,
|
|
1111,
|
|
1112,
|
|
1111,
|
|
1112,
|
|
1111,
|
|
1130,
|
|
|
|
#GOGOEND
|
|
1011,
|
|
1011,
|
|
1011,
|
|
500000000000000000000000000000000008000000000000,
|
|
1011,
|
|
1011,
|
|
1011,
|
|
500000000000000000000000000000000008000000000000,
|
|
1202,
|
|
1202,
|
|
1202,
|
|
1202,
|
|
1202,
|
|
1202,
|
|
1202,
|
|
1202,
|
|
11100020,
|
|
11100020,
|
|
11100020,
|
|
11100020,
|
|
11100020,
|
|
11100020,
|
|
11100020,
|
|
11100020,
|
|
11101110,
|
|
10110000,
|
|
11101110,
|
|
10110000,
|
|
11101110,
|
|
10101110,
|
|
10010010,
|
|
3330,
|
|
|
|
#GOGOSTART
|
|
1111,
|
|
1112,
|
|
1111,
|
|
1112,
|
|
1111,
|
|
1112,
|
|
1111,
|
|
1112,
|
|
1111,
|
|
1112,
|
|
1111,
|
|
1112,
|
|
1111,
|
|
1112,
|
|
1111,
|
|
1112,
|
|
|
|
#GOGOEND
|
|
3,
|
|
|
|
|
|
#END
|
|
|
|
|
|
COURSE:Easy
|
|
LEVEL:4
|
|
SCOREINIT:450
|
|
SCOREDIFF:120
|
|
|
|
|
|
#START
|
|
|
|
|
|
2,
|
|
2200,
|
|
2,
|
|
2200,
|
|
2,
|
|
2200,
|
|
2,
|
|
2200,
|
|
2,
|
|
2200,
|
|
2,
|
|
2200,
|
|
2,
|
|
2200,
|
|
22,
|
|
2200,
|
|
22,
|
|
22,
|
|
2,
|
|
2,
|
|
20020020,
|
|
#BPMCHANGE 188
|
|
13,
|
|
11,
|
|
11,
|
|
11,
|
|
500000000000000000000000000000000008000000000000,
|
|
11,
|
|
11,
|
|
11,
|
|
500000000000000000000000000000000008000000000000,
|
|
1001,
|
|
1,
|
|
1001,
|
|
1,
|
|
1001,
|
|
1,
|
|
1001,
|
|
1,
|
|
1001,
|
|
1,
|
|
1001,
|
|
1,
|
|
1001,
|
|
1,
|
|
1001,
|
|
1,
|
|
1110,
|
|
11,
|
|
1110,
|
|
11,
|
|
1110,
|
|
11,
|
|
10010010,
|
|
3333,
|
|
|
|
#GOGOSTART
|
|
1111,
|
|
1110,
|
|
1111,
|
|
1110,
|
|
1111,
|
|
1110,
|
|
1111,
|
|
1110,
|
|
|
|
#GOGOEND
|
|
11,
|
|
11,
|
|
11,
|
|
500000000000000000000000000000000008000000000000,
|
|
11,
|
|
11,
|
|
11,
|
|
500000000000000000000000000000000008000000000000,
|
|
1001,
|
|
1,
|
|
1001,
|
|
1,
|
|
1001,
|
|
1,
|
|
1001,
|
|
1,
|
|
1001,
|
|
1,
|
|
1001,
|
|
1,
|
|
1001,
|
|
1,
|
|
1001,
|
|
1,
|
|
1110,
|
|
11,
|
|
1110,
|
|
11,
|
|
1110,
|
|
11,
|
|
10010010,
|
|
3333,
|
|
|
|
#GOGOSTART
|
|
1111,
|
|
1110,
|
|
1111,
|
|
1110,
|
|
1111,
|
|
1110,
|
|
1111,
|
|
1110,
|
|
1111,
|
|
1110,
|
|
1111,
|
|
1110,
|
|
1111,
|
|
1110,
|
|
1111,
|
|
1110,
|
|
|
|
#GOGOEND
|
|
3,
|
|
|
|
|
|
#END
|
|
|