Files
2023-06-15 19:05:10 -05:00

260 lines
3.2 KiB
Plaintext

//TJADB Project
TITLE:TT -Japanese Version-
TITLEJA:TT -Japanese ver.-
SUBTITLE:--TWICE
BPM:130
WAVE:TT -Japanese Version-.ogg
OFFSET:-2.079
DEMOSTART:60.440
COURSE:Oni
LEVEL:7
BALLOON:11,4,4,4,4
SCOREINIT:930
SCOREDIFF:230
#START
20000202,
,
20000202,
0003,
20000202,
,
20000202,
70000841,
3000000011111010,
2000000011111010,
2000000011111020,
30443040,
3000002010010102,
1011010210110103,
0004000000112020,
1110202010002220,
1022022010202010,
1002202000102020,
1022002010102010,
40140020,
10211020,
1011201010002000,
1022201010001022,
21123030,
2002002020202000,
20022121,
2002002020002000,
20020202,
1000102010222000,
1020102220201000,
3000002020101110,
3000000000202202,
#GOGOSTART
1011201000102202,
0010401000202202,
1011201010001102,
0022201010404040,
1000201110104000,
3000201110104000,
1011201010001011,
21123040,
3003007000802220,
3003007000800011,
11221044,
30443022,
3003007000802220,
3003007000800000,
1022201020102000,
300000000000300000600000000000000008000000000000,
#GOGOEND
#END
COURSE:Hard
LEVEL:5
BALLOON:9,6,6,6,6
SCOREINIT:830
SCOREDIFF:240
#START
20000202,
,
20000202,
0003,
20000202,
,
20000202,
70000840,
3000000011101000,
2000000011101000,
2000000011101000,
30443040,
0000001010010000,
1011000010110004,
0004000000111000,
22201020,
1011001010001000,
20200220,
1011001010001000,
40040020,
10111020,
11111020,
11111022,
22203030,
2002002020202000,
20022220,
2002002020002000,
20020202,
10111110,
22222020,
30022030,
30000220,//32
#GOGOSTART
1000101000101101,
00400220,
1000101010001101,
02202444,
0000001110103000,
3000001110103000,
11111022,
22204040,
3003007000008000,
3003007000008000,
11221044,
30443020,
3003007000008000,
3003007000008000,
11221020,
600000000000000000000000000000000008000000000000,//48
#GOGOEND
#END
COURSE:Normal
LEVEL:5
BALLOON:4,4,4,4
#START
20000202,
,
20000202,
0004,
20000202,
,
20000202,
0003,
30001110,
20001110,
20001110,
30333040,
000000010020000,
100200010020006,
000000000000000008000000000000200000200000000000,
22202020,
1002000010001000,
2002000000202000,
1002000010001000,
30030000,
10111020,
10111020,
11101011,
1133,
2022,
22,
2022,
2,
10111010,
11101010,
30011010,
3002,//32
#GOGOSTART
10110150,
00800220,
1000101010001005,
,
08011030,
30011030,
11101011,
1144,
3003007000008000,
3003007000008000,
11101033,
30333000,
3003007000008000,
3003007000008000,
11102020,
600000000000000000000000000000000008000000000000,//48
#GOGOEND
#END
COURSE:Easy
LEVEL:3
BALLOON:3,3,3,3
#START
2,
,
2,
,
2,
,
2,
,
3011,
1011,
1011,
3044,
01,
1000000010000006,
000000000000000008000000000000000000100000000000,
12,
1011,
2200,
1011,
3,
1110,
1110,
11,
1110,
22,
2,
22,
2,
1110,
1110,
3033,
3,//32
#GOGOSTART
1105,
000000000008000000000000000000000000000000000000,
1000100010000005,
,
000008000000000000000000100000000000300000000000,
3013,
31,
2220,
3003007000008000,
3003007000008000,
1103,
3330,
3003007000008000,
3003007000008000,
1111,
600000000000000000000000000000000008000000000000,//48
#GOGOEND
#END