forked from ESE/ESE
1154 lines
33 KiB
Plaintext
1154 lines
33 KiB
Plaintext
//TJADB Project
|
||
TITLE:Tomoni
|
||
TITLEJA:ともに
|
||
SUBTITLE:--WANIMA/8×4 Body Fresh
|
||
SUBTITLEJA:WANIMA
|
||
BPM:126.24
|
||
WAVE:Tomoni.ogg
|
||
OFFSET:-2.185
|
||
DEMOSTART:68.955
|
||
|
||
COURSE:Oni
|
||
LEVEL:7
|
||
BALLOON:10
|
||
SCOREINIT:410
|
||
SCOREDIFF:110
|
||
|
||
|
||
#START
|
||
|
||
|
||
300000000000200000200000100000000000200000200000,
|
||
#BPMCHANGE 126.63
|
||
100000000000200000000000100000000000200000000000,
|
||
#BPMCHANGE 127.06
|
||
100000000000200000200000100000200100000100200000,
|
||
#BPMCHANGE 127.7
|
||
100000000200000000200000100000000000000000100000,
|
||
#BPMCHANGE 127.38
|
||
100000000000200000100000100000000000200000100000,
|
||
#BPMCHANGE 126.08
|
||
300000200000300000000000300000000000300000200000,
|
||
#BPMCHANGE 127.94
|
||
300000000000200000000000000000000000200000000000,
|
||
#BPMCHANGE 127.28
|
||
300000000000000000000000000000000000000000000000,
|
||
#BPMCHANGE 126.45
|
||
#MEASURE 2/4
|
||
000000000000200000000000,
|
||
#BPMCHANGE 254.18
|
||
#SCROLL 0.99
|
||
#GOGOSTART
|
||
#MEASURE 4/4
|
||
100000000000100100100000100000100000100000000000,
|
||
#BPMCHANGE 255.8
|
||
100000000000100100100000100000100000200000000000,
|
||
#BPMCHANGE 253.81
|
||
#SCROLL 1
|
||
100000000000100100100000100000100000100000000000,
|
||
#BPMCHANGE 259.44
|
||
#SCROLL 0.97
|
||
100000000000100100100000100000100000200000000000,
|
||
#BPMCHANGE 252.1
|
||
#SCROLL 1
|
||
100000000000100100100000100000100000100000000000,
|
||
#BPMCHANGE 252.09
|
||
100000000000100100100000100000100000200000000000,
|
||
100100100000200000000000200000000000100100100000,
|
||
#BPMCHANGE 252.66
|
||
200000000000200000100000000000000000200000000000,
|
||
#BPMCHANGE 254.25
|
||
#SCROLL 0.99
|
||
100100100000200000000000200000000000100000000000,
|
||
#BPMCHANGE 255.21
|
||
100000000000200000100000100000000000200000000000,
|
||
#BPMCHANGE 255.8
|
||
300000000000200000300000000000200000300000000000,
|
||
#BPMCHANGE 256.63
|
||
#SCROLL 0.98
|
||
000000000000200200200000100000000000200000000000,
|
||
#BPMCHANGE 250.19
|
||
#SCROLL 1.01
|
||
100000000000100100100000100000100000100000000000,
|
||
#BPMCHANGE 254.44
|
||
#SCROLL 0.99
|
||
100000000000100100100000100000100000200000000000,
|
||
#BPMCHANGE 250.95
|
||
#SCROLL 1.01
|
||
#GOGOEND
|
||
000000000000000000000000000000000000000000000000,
|
||
#BPMCHANGE 256
|
||
#SCROLL 0.99
|
||
100000100000200000200000200000200000200000200000,
|
||
#BPMCHANGE 252.75
|
||
#SCROLL 1
|
||
100000000000200000000000100000100000200000100000,
|
||
#BPMCHANGE 257.12
|
||
#SCROLL 0.98
|
||
100000000000200000000000100000100000200000200000,
|
||
#BPMCHANGE 250.96
|
||
#SCROLL 1.01
|
||
100000000000200000000000100000100000200000100000,
|
||
#BPMCHANGE 251.69
|
||
#SCROLL 1
|
||
100000000000200000000000100000100000200000200000,
|
||
#BPMCHANGE 255.16
|
||
#SCROLL 0.99
|
||
100000000000200000000000100000100000200000100000,
|
||
100000000000200000000000100000100000200000200000,
|
||
#BPMCHANGE 252.57
|
||
#SCROLL 1
|
||
100000000000200000000000100000100000200000100000,
|
||
#BPMCHANGE 255.46
|
||
#SCROLL 0.99
|
||
300000000000000000000000300000000000000000000000,
|
||
#BPMCHANGE 252.24
|
||
#SCROLL 1
|
||
100000000000200000000000100000100000200000100000,
|
||
#BPMCHANGE 254.91
|
||
#SCROLL 0.99
|
||
100000000000200000000000100100100000200000000000,
|
||
100000000000200000000000100000100000200000200000,
|
||
#BPMCHANGE 253.97
|
||
#SCROLL 1
|
||
100000000000200000000000100100100000200000000000,
|
||
100000000000200000000000100000100000200000100000,
|
||
#BPMCHANGE 261.79
|
||
#SCROLL 0.97
|
||
100000000000200000000000100100100000200000000000,
|
||
#BPMCHANGE 250.95
|
||
#SCROLL 1.01
|
||
100000000000200000100000000000200000100000000000,
|
||
#BPMCHANGE 253.31
|
||
#SCROLL 1
|
||
100000000000200000000000200000000000200000000000,
|
||
#BPMCHANGE 250.51
|
||
#SCROLL 1.01
|
||
100100100000200000000000100000100000200000100000,
|
||
#BPMCHANGE 253.76
|
||
#SCROLL 1
|
||
100000100000200000000000100000100000200000000000,
|
||
#BPMCHANGE 254
|
||
100100100000200000000000100000100000200000200000,
|
||
100000100000200000000000100000100000200000000000,
|
||
100100100000200000000000100000100000200000100000,
|
||
100000100000200000000000100000100000200000000000,
|
||
100100100000200000000000100000100000200000200000,
|
||
#BPMCHANGE 258.45
|
||
#SCROLL 0.98
|
||
300000000000300000000000300000200000200000200000,
|
||
#BPMCHANGE 251.83
|
||
#SCROLL 1
|
||
100100100000200000000000100000100000200000100000,
|
||
100000100000200000000000100000100000200000000000,
|
||
#BPMCHANGE 254
|
||
100100100000200000000000100000100000200000200000,
|
||
100000100000200000000000100000100000200000000000,
|
||
100100100000200000000000100000100000200000100000,
|
||
100000100000200000000000100000100000200000000000,
|
||
#BPMCHANGE 249.31
|
||
#SCROLL 1.01
|
||
100000000000200000100000000000200000100000000000,
|
||
#BPMCHANGE 257.79
|
||
#SCROLL 0.98
|
||
100000200200200000200000200000200000100000100000,
|
||
#BPMCHANGE 252.67
|
||
#SCROLL 1
|
||
100000000000000000000000200000000000000000000000,
|
||
#BPMCHANGE 255.21
|
||
#SCROLL 0.99
|
||
000000000000000000000000200000000000000000000000,
|
||
#BPMCHANGE 256
|
||
300000000000000000000000300000000000000000000000,
|
||
#BPMCHANGE 259.01
|
||
#SCROLL 0.98
|
||
200000000000200000200000100000100000100000100000,
|
||
#BPMCHANGE 257
|
||
100000000000400000000000000000000000400000000000,
|
||
#BPMCHANGE 250.75
|
||
#SCROLL 1.01
|
||
000000000000400000000000000000000000400000000000,
|
||
#BPMCHANGE 249.81
|
||
100000100000200000100000100000200000300000000000,
|
||
#BPMCHANGE 254.53
|
||
#SCROLL 0.99
|
||
300000000000000000000000000000000000000000000000,
|
||
#BPMCHANGE 253.22
|
||
#SCROLL 1
|
||
#GOGOSTART
|
||
100000000000100100100000200000000000200000000000,
|
||
100000000000100100100000200000000000200000000000,
|
||
100000000000200000100000100000000000200000000000,
|
||
#BPMCHANGE 254.37
|
||
#SCROLL 0.99
|
||
100000000000200000100000100000000000200000000000,
|
||
100000100000200000200000100000000000200000200000,
|
||
100000100000200000200000100000000000200000000000,
|
||
300000000000000000300000000000000000300000000000,
|
||
#BPMCHANGE 254.62
|
||
300000000000200000000000100000100000200000100000,
|
||
100000000000200000000000100100100000200000000000,
|
||
#BPMCHANGE 255.21
|
||
100000000000200000000000100100100000200000000000,
|
||
#BPMCHANGE 252.48
|
||
#SCROLL 1
|
||
100000000000200000100000000000100000200000000000,
|
||
#BPMCHANGE 255.37
|
||
#SCROLL 0.99
|
||
100000100000200000100000100000000000200000000000,
|
||
#BPMCHANGE 252.67
|
||
#SCROLL 1
|
||
500000000000000000000000000000000000000000000008,
|
||
#BPMCHANGE 253.06
|
||
000000000000000000000000300000000000300000000000,
|
||
600000000000000000000000000008000000000000000000,
|
||
#BPMCHANGE 254.15
|
||
#SCROLL 0.99
|
||
700000000000000000000000000000000000800000000000,
|
||
100000000000100100100000200000000000100000200000,
|
||
100000000000100100100000200000000000100000200000,
|
||
100000000000200000100000100000000000100000200000,
|
||
100000000000200000100000100000000000200000000000,
|
||
#BPMCHANGE 252.68
|
||
#SCROLL 1
|
||
100000100000200000200000100000000000200000200000,
|
||
100000000000200000100000000000100000200000000000,
|
||
#BPMCHANGE 255.6
|
||
#SCROLL 0.99
|
||
300000000000000000300000000000000000300000000000,
|
||
#BPMCHANGE 257.59
|
||
#SCROLL 0.98
|
||
300000000000200000000000100000100000200000100000,
|
||
#BPMCHANGE 252.67
|
||
#SCROLL 1
|
||
100000000000200000000000100100100000200000000000,
|
||
#BPMCHANGE 252.57
|
||
100000000000200000000000100100100000200000000000,
|
||
#BPMCHANGE 253.95
|
||
300000000000300000000000600000000008000000000000,
|
||
#BPMCHANGE 259.25
|
||
#SCROLL 0.97
|
||
300000000000000000000000300000000000300000000000,
|
||
#BPMCHANGE 248.88
|
||
#SCROLL 1.02
|
||
400000000000100000100000200000000000300000000000,
|
||
#BPMCHANGE 257.79
|
||
#SCROLL 0.98
|
||
300000000000400000000000400000000000300000000000,
|
||
#BPMCHANGE 254.81
|
||
#SCROLL 0.99
|
||
400000000000200000100000200000100000200000100000,
|
||
#GOGOEND
|
||
400000000000000000000000000000000000000000000000,
|
||
#BPMCHANGE 248.56
|
||
#SCROLL 1.02
|
||
000000000000000000000000400000000000000000000000,
|
||
#BPMCHANGE 254.36
|
||
#SCROLL 0.99
|
||
100100100000100000000000200000000000200000000000,
|
||
#BPMCHANGE 259.01
|
||
#SCROLL 0.98
|
||
100000000000100000000000200000000000200000000000,
|
||
#BPMCHANGE 248.69
|
||
#SCROLL 1.02
|
||
100100100000200000000000100000000000200000000000,
|
||
#BPMCHANGE 256
|
||
#SCROLL 0.99
|
||
100100100000200000000000100000000000200000000000,
|
||
#BPMCHANGE 251.52
|
||
#SCROLL 1
|
||
100100100000100000000000100000000000100000000000,
|
||
#BPMCHANGE 254.09
|
||
#SCROLL 0.99
|
||
200000000000200000000000100000000000100000000000,
|
||
#BPMCHANGE 257.94
|
||
#SCROLL 0.98
|
||
100100100000200000000000100100100000200000000000,
|
||
#BPMCHANGE 250.35
|
||
#SCROLL 1.01
|
||
200000000000000000000000000000000000000000000000,
|
||
#BPMCHANGE 254.48
|
||
#SCROLL 0.99
|
||
#GOGOSTART
|
||
100100100000200000000000200000000000100000000000,
|
||
#BPMCHANGE 254.48
|
||
100000000000200000100000100000000000200000000000,
|
||
#BPMCHANGE 256.12
|
||
300000000000200000300000000000200000300000000000,
|
||
#BPMCHANGE 252.88
|
||
#SCROLL 1
|
||
000000000000200200200000100000000000200000000000,
|
||
#BPMCHANGE 248.49
|
||
#SCROLL 1.02
|
||
100000000000100100100000100000100000100000000000,
|
||
#BPMCHANGE 260.25
|
||
#SCROLL 0.97
|
||
100000000000100100100000100000100000200000000000,
|
||
#BPMCHANGE 252.1
|
||
#SCROLL 1
|
||
#GOGOEND
|
||
000000000000000000000000000000000000000000000000,
|
||
#BPMCHANGE 253.54
|
||
300000000000000000000000000000000000000000000000,
|
||
|
||
|
||
#END
|
||
|
||
|
||
COURSE:Hard
|
||
LEVEL:5
|
||
BALLOON:9,6
|
||
SCOREINIT:530
|
||
SCOREDIFF:140
|
||
|
||
|
||
#START
|
||
|
||
|
||
300000000000000000000000000000000000000000000000,
|
||
#BPMCHANGE 126.63
|
||
100000000000200000000000100000000000200000000000,
|
||
#BPMCHANGE 127.06
|
||
100000000000000000000000000000000000000000000000,
|
||
#BPMCHANGE 127.7
|
||
100000000100000000100000200000000000000000000000,
|
||
#BPMCHANGE 127.38
|
||
100000000000200000000000100000000000200000000000,
|
||
#BPMCHANGE 126.08
|
||
300000000000300000000000300000000000300000000000,
|
||
#BPMCHANGE 127.94
|
||
300000000000200000000000000000000000200000000000,
|
||
#BPMCHANGE 127.28
|
||
300000000000000000000000000000000000000000000000,
|
||
#BPMCHANGE 126.45
|
||
#MEASURE 2/4
|
||
000000000000200000000000,
|
||
#BPMCHANGE 254.18
|
||
#SCROLL 0.99
|
||
#GOGOSTART
|
||
#MEASURE 4/4
|
||
100000000000100000100000100000000000100000000000,
|
||
#BPMCHANGE 255.8
|
||
100000000000100000100000100000000000100000000000,
|
||
#BPMCHANGE 253.81
|
||
#SCROLL 1
|
||
100000000000100000100000100000000000100000000000,
|
||
#BPMCHANGE 259.44
|
||
#SCROLL 0.97
|
||
100000000000100000100000200000000000000000000000,
|
||
#BPMCHANGE 252.1
|
||
#SCROLL 1
|
||
100000000000100000100000200000000000200000000000,
|
||
#BPMCHANGE 252.09
|
||
100000000000100000100000200000000000200000000000,
|
||
100000100000200000000000200000000000000000000000,
|
||
#BPMCHANGE 252.66
|
||
200000000000200000100000000000000000200000000000,
|
||
#BPMCHANGE 254.25
|
||
#SCROLL 0.99
|
||
100000000000100000000000200000000000200000000000,
|
||
#BPMCHANGE 255.21
|
||
100000000000100000100000100000000000200000000000,
|
||
#BPMCHANGE 255.8
|
||
300000000000000000300000000000000000300000000000,
|
||
#BPMCHANGE 256.63
|
||
#SCROLL 0.98
|
||
000000000000200000000000200000000000200000000000,
|
||
#BPMCHANGE 250.19
|
||
#SCROLL 1.01
|
||
100000000000100000100000100000000000200000000000,
|
||
#BPMCHANGE 254.44
|
||
#SCROLL 0.99
|
||
100000000000100000000000200000000000200000000000,
|
||
#BPMCHANGE 250.95
|
||
#SCROLL 1.01
|
||
#GOGOEND
|
||
000000000000000000000000000000000000000000000000,
|
||
#BPMCHANGE 256
|
||
#SCROLL 0.99
|
||
000000000000000000000000000000000000000000000000,
|
||
#BPMCHANGE 252.75
|
||
#SCROLL 1
|
||
100000000000000000000000000000000000000000000000,
|
||
#BPMCHANGE 257.12
|
||
#SCROLL 0.98
|
||
100000000000000000000000000000000000000000000000,
|
||
#BPMCHANGE 250.96
|
||
#SCROLL 1.01
|
||
100000000000000000000000000000000000000000000000,
|
||
#BPMCHANGE 251.69
|
||
#SCROLL 1
|
||
100000000000000000000000000000000000000000000000,
|
||
#BPMCHANGE 255.16
|
||
#SCROLL 0.99
|
||
100000000000000000000000000000000000000000000000,
|
||
100000000000000000000000000000000000000000000000,
|
||
#BPMCHANGE 252.57
|
||
#SCROLL 1
|
||
100000000000000000000000000000000000000000000000,
|
||
#BPMCHANGE 255.46
|
||
#SCROLL 0.99
|
||
300000000000000000000000300000000000000000000000,
|
||
#BPMCHANGE 252.24
|
||
#SCROLL 1
|
||
100000000000100000000000100000000000000000000000,
|
||
#BPMCHANGE 254.91
|
||
#SCROLL 0.99
|
||
100000000000200000000000100000000000000000000000,
|
||
100000000000100000000000100000000000200000000000,
|
||
#BPMCHANGE 253.97
|
||
#SCROLL 1
|
||
100000000000200000000000100000000000000000000000,
|
||
100000000000100000000000100000000000000000000000,
|
||
#BPMCHANGE 261.79
|
||
#SCROLL 0.97
|
||
100000000000200000000000100000000000000000000000,
|
||
#BPMCHANGE 250.95
|
||
#SCROLL 1.01
|
||
300000000000000000300000000000000000300000000000,
|
||
#BPMCHANGE 253.31
|
||
#SCROLL 1
|
||
000000000000200000000000200000000000200000000000,
|
||
#BPMCHANGE 250.51
|
||
#SCROLL 1.01
|
||
100000000000200000000000100000000000200000000000,
|
||
#BPMCHANGE 253.76
|
||
#SCROLL 1
|
||
100000000000100000000000100000000000000000000000,
|
||
#BPMCHANGE 254
|
||
100000000000200000000000100000000000200000000000,
|
||
100000000000100000000000100000000000000000000000,
|
||
100000000000200000000000100000000000200000000000,
|
||
100000000000100000000000100000000000200000000000,
|
||
100000000000200000000000100000000000200000000000,
|
||
#BPMCHANGE 258.45
|
||
#SCROLL 0.98
|
||
300000000000000000000000400000000000100000000000,
|
||
#BPMCHANGE 251.83
|
||
#SCROLL 1
|
||
100000000000200000000000100000000000200000000000,
|
||
100000000000100000000000100000000000000000000000,
|
||
#BPMCHANGE 254
|
||
100000000000200000000000100000000000200000000000,
|
||
100000000000100000000000100000000000000000000000,
|
||
100000000000200000000000100000000000200000000000,
|
||
100000000000100000000000100000000000000000000000,
|
||
#BPMCHANGE 249.31
|
||
#SCROLL 1.01
|
||
300000000000000000300000000000000000300000000000,
|
||
#BPMCHANGE 257.79
|
||
#SCROLL 0.98
|
||
400000000000000000000000400000000000000000000000,
|
||
#BPMCHANGE 252.67
|
||
#SCROLL 1
|
||
100000000000000000000000200000000000000000000000,
|
||
#BPMCHANGE 255.21
|
||
#SCROLL 0.99
|
||
000000000000000000000000200000000000000000000000,
|
||
#BPMCHANGE 256
|
||
300000000000000000000000300000000000000000000000,
|
||
#BPMCHANGE 259.01
|
||
#SCROLL 0.98
|
||
000000000000000000000000000000000000000000000000,
|
||
#BPMCHANGE 257
|
||
700000000000000000000000000000000000000000000000,
|
||
#BPMCHANGE 250.75
|
||
#SCROLL 1.01
|
||
000000000000800000000000000000000000300000000000,
|
||
#BPMCHANGE 249.81
|
||
300000000000000000300000000000000000300000000000,
|
||
#BPMCHANGE 254.53
|
||
#SCROLL 0.99
|
||
300000000000000000000000000000000000000000000000,
|
||
#BPMCHANGE 253.22
|
||
#SCROLL 1
|
||
#GOGOSTART
|
||
100000000000100000000000200000000000200000000000,
|
||
100000000000100000000000200000000000200000000000,
|
||
100000000000000000000000200000000000200000000000,
|
||
#BPMCHANGE 254.37
|
||
#SCROLL 0.99
|
||
100000000000000000000000200000000000000000000000,
|
||
100000100000100000000000200000000000200000000000,
|
||
100000100000100000000000200000000000200000000000,
|
||
100000000000000000100000000000000000100000000000,
|
||
#BPMCHANGE 254.62
|
||
200000000000000000000000000000000000100000000000,
|
||
100000000000200000000000100000100000200000000000,
|
||
#BPMCHANGE 255.21
|
||
100000000000200000000000100000100000200000000000,
|
||
#BPMCHANGE 252.48
|
||
#SCROLL 1
|
||
100000000000000000100000000000000000100000000000,
|
||
#BPMCHANGE 255.37
|
||
#SCROLL 0.99
|
||
100000000000000000000000200000000000200000000000,
|
||
#BPMCHANGE 252.67
|
||
#SCROLL 1
|
||
500000000000000000000000000000000000000000000008,
|
||
#BPMCHANGE 253.06
|
||
000000000000000000000000300000000000300000000000,
|
||
300000000000000000000000000000000000000000000000,
|
||
#BPMCHANGE 254.15
|
||
#SCROLL 0.99
|
||
700000000000000000000000000000000000800000000000,
|
||
100000000000100000000000200000000000200000000000,
|
||
100000000000100000000000200000000000200000000000,
|
||
100000000000000000000000200000000000000000000000,
|
||
100000000000000000000000200000000000000000000000,
|
||
#BPMCHANGE 252.68
|
||
#SCROLL 1
|
||
100000100000100000000000200000000000200000000000,
|
||
100000100000100000000000200000000000200000000000,
|
||
#BPMCHANGE 255.6
|
||
#SCROLL 0.99
|
||
100000000000000000100000000000000000100000000000,
|
||
#BPMCHANGE 257.59
|
||
#SCROLL 0.98
|
||
200000000000000000000000000000000000100000000000,
|
||
#BPMCHANGE 252.67
|
||
#SCROLL 1
|
||
100000000000200000000000100000100000200000000000,
|
||
#BPMCHANGE 252.57
|
||
100000000000200000000000100000100000200000000000,
|
||
#BPMCHANGE 253.95
|
||
300000000000300000000000300000000000000000000000,
|
||
#BPMCHANGE 259.25
|
||
#SCROLL 0.97
|
||
300000000000000000000000300000000000300000000000,
|
||
#BPMCHANGE 248.88
|
||
#SCROLL 1.02
|
||
300000000000000000000000000000000000300000000000,
|
||
#BPMCHANGE 257.79
|
||
#SCROLL 0.98
|
||
300000000000300000000000300000000000300000000000,
|
||
#BPMCHANGE 254.81
|
||
#SCROLL 0.99
|
||
400000000000400000000000400000000000000000000000,
|
||
#GOGOEND
|
||
300000000000000000000000000000000000000000000000,
|
||
#BPMCHANGE 248.56
|
||
#SCROLL 1.02
|
||
000000000000000000000000400000000000000000000000,
|
||
#BPMCHANGE 254.36
|
||
#SCROLL 0.99
|
||
100000100000100000000000200000000000200000000000,
|
||
#BPMCHANGE 259.01
|
||
#SCROLL 0.98
|
||
100000000000100000000000200000000000200000000000,
|
||
#BPMCHANGE 248.69
|
||
#SCROLL 1.02
|
||
000000000000200000000000000000000000200000000000,
|
||
#BPMCHANGE 256
|
||
#SCROLL 0.99
|
||
000000000000200000000000000000000000200000000000,
|
||
#BPMCHANGE 251.52
|
||
#SCROLL 1
|
||
100000100000100000000000200000000000200000000000,
|
||
#BPMCHANGE 254.09
|
||
#SCROLL 0.99
|
||
100000000000100000000000200000000000200000000000,
|
||
#BPMCHANGE 257.94
|
||
#SCROLL 0.98
|
||
000000000000200000000000000000000000200000000000,
|
||
#BPMCHANGE 250.35
|
||
#SCROLL 1.01
|
||
200000000000000000000000000000000000000000000000,
|
||
#BPMCHANGE 254.48
|
||
#SCROLL 0.99
|
||
#GOGOSTART
|
||
100000000000100000000000200000000000200000000000,
|
||
#BPMCHANGE 254.48
|
||
100000000000100000100000100000000000200000000000,
|
||
#BPMCHANGE 256.12
|
||
300000000000000000300000000000000000300000000000,
|
||
#BPMCHANGE 252.88
|
||
#SCROLL 1
|
||
000000000000200000000000200000000000200000000000,
|
||
#BPMCHANGE 248.49
|
||
#SCROLL 1.02
|
||
100000000000100000100000100000000000200000000000,
|
||
#BPMCHANGE 260.25
|
||
#SCROLL 0.97
|
||
100000000000100000000000200000000000200000000000,
|
||
#BPMCHANGE 252.1
|
||
#SCROLL 1
|
||
#GOGOEND
|
||
000000000000000000000000000000000000000000000000,
|
||
#BPMCHANGE 253.54
|
||
300000000000000000000000000000000000000000000000,
|
||
|
||
|
||
#END
|
||
|
||
|
||
COURSE:Normal
|
||
LEVEL:4
|
||
BALLOON:15,4
|
||
|
||
|
||
#START
|
||
|
||
|
||
300000000000000000000000000000000000000000000000,
|
||
#BPMCHANGE 126.63
|
||
200000000000200000000000200000000000200000000000,
|
||
#BPMCHANGE 127.06
|
||
100000000000000000000000000000000000000000000000,
|
||
#BPMCHANGE 127.7
|
||
200000000000000000000000200000000000000000000000,
|
||
#BPMCHANGE 127.38
|
||
100000000000000000000000100000000000000000000000,
|
||
#BPMCHANGE 126.08
|
||
300000000000300000000000300000000000300000000000,
|
||
#BPMCHANGE 127.94
|
||
300000000000000000000000000000000000000000000000,
|
||
#BPMCHANGE 127.28
|
||
300000000000000000000000000000000000000000000000,
|
||
#BPMCHANGE 126.45
|
||
#MEASURE 2/4
|
||
000000000000200000000000,
|
||
#BPMCHANGE 254.18
|
||
#SCROLL 0.99
|
||
#GOGOSTART
|
||
#MEASURE 4/4
|
||
100000000000000000000000000000000000000000000000,
|
||
#BPMCHANGE 255.8
|
||
100000000000000000000000000000000000000000000000,
|
||
#BPMCHANGE 253.81
|
||
#SCROLL 1
|
||
100000000000000000000000100000000000000000000000,
|
||
#BPMCHANGE 259.44
|
||
#SCROLL 0.97
|
||
100000000000000000000000200000000000000000000000,
|
||
#BPMCHANGE 252.1
|
||
#SCROLL 1
|
||
100000000000000000000000000000000000000000000000,
|
||
#BPMCHANGE 252.09
|
||
100000000000000000000000000000000000000000000000,
|
||
100000000000200000000000200000000000000000000000,
|
||
#BPMCHANGE 252.66
|
||
200000000000100000000000000000000000000000000000,
|
||
#BPMCHANGE 254.25
|
||
#SCROLL 0.99
|
||
100000000000100000000000100000000000000000000000,
|
||
#BPMCHANGE 255.21
|
||
100000000000100000000000100000000000000000000000,
|
||
#BPMCHANGE 255.8
|
||
100000000000000000100000000000000000100000000000,
|
||
#BPMCHANGE 256.63
|
||
#SCROLL 0.98
|
||
000000000000000000000000000000000000000000000000,
|
||
#BPMCHANGE 250.19
|
||
#SCROLL 1.01
|
||
100000000000100000000000100000000000000000000000,
|
||
#BPMCHANGE 254.44
|
||
#SCROLL 0.99
|
||
100000000000100000000000100000000000200000000000,
|
||
#BPMCHANGE 250.95
|
||
#SCROLL 1.01
|
||
#GOGOEND
|
||
000000000000000000000000000000000000000000000000,
|
||
#BPMCHANGE 256
|
||
#SCROLL 0.99
|
||
000000000000000000000000000000000000000000000000,
|
||
#BPMCHANGE 252.75
|
||
#SCROLL 1
|
||
100000000000000000000000000000000000000000000000,
|
||
#BPMCHANGE 257.12
|
||
#SCROLL 0.98
|
||
100000000000000000000000000000000000000000000000,
|
||
#BPMCHANGE 250.96
|
||
#SCROLL 1.01
|
||
100000000000000000000000000000000000000000000000,
|
||
#BPMCHANGE 251.69
|
||
#SCROLL 1
|
||
100000000000000000000000000000000000000000000000,
|
||
#BPMCHANGE 255.16
|
||
#SCROLL 0.99
|
||
200000000000000000000000000000000000000000000000,
|
||
200000000000000000000000000000000000000000000000,
|
||
#BPMCHANGE 252.57
|
||
#SCROLL 1
|
||
200000000000000000000000000000000000000000000000,
|
||
#BPMCHANGE 255.46
|
||
#SCROLL 0.99
|
||
300000000000000000000000300000000000000000000000,
|
||
#BPMCHANGE 252.24
|
||
#SCROLL 1
|
||
100000000000100000000000100000000000000000000000,
|
||
#BPMCHANGE 254.91
|
||
#SCROLL 0.99
|
||
100000000000100000000000100000000000000000000000,
|
||
100000000000100000000000100000000000000000000000,
|
||
#BPMCHANGE 253.97
|
||
#SCROLL 1
|
||
200000000000000000000000000000000000000000000000,
|
||
100000000000100000000000100000000000000000000000,
|
||
#BPMCHANGE 261.79
|
||
#SCROLL 0.97
|
||
100000000000100000000000100000000000000000000000,
|
||
#BPMCHANGE 250.95
|
||
#SCROLL 1.01
|
||
200000000000000000200000000000000000200000000000,
|
||
#BPMCHANGE 253.31
|
||
#SCROLL 1
|
||
000000000000000000000000000000000000000000000000,
|
||
#BPMCHANGE 250.51
|
||
#SCROLL 1.01
|
||
100000000000000000000000200000000000000000000000,
|
||
#BPMCHANGE 253.76
|
||
#SCROLL 1
|
||
100000000000100000000000100000000000000000000000,
|
||
#BPMCHANGE 254
|
||
100000000000000000000000200000000000000000000000,
|
||
100000000000100000000000100000000000000000000000,
|
||
100000000000000000000000200000000000000000000000,
|
||
100000000000100000000000100000000000000000000000,
|
||
100000000000000000000000200000000000000000000000,
|
||
#BPMCHANGE 258.45
|
||
#SCROLL 0.98
|
||
100000000000000000000000000000000000000000000000,
|
||
#BPMCHANGE 251.83
|
||
#SCROLL 1
|
||
100000000000000000000000200000000000000000000000,
|
||
100000000000100000000000100000000000000000000000,
|
||
#BPMCHANGE 254
|
||
100000000000000000000000200000000000000000000000,
|
||
100000000000100000000000100000000000000000000000,
|
||
100000000000000000000000200000000000000000000000,
|
||
100000000000100000000000100000000000000000000000,
|
||
#BPMCHANGE 249.31
|
||
#SCROLL 1.01
|
||
200000000000000000200000000000000000200000000000,
|
||
#BPMCHANGE 257.79
|
||
#SCROLL 0.98
|
||
000000000000000000000000000000000000000000000000,
|
||
#BPMCHANGE 252.67
|
||
#SCROLL 1
|
||
100000000000000000000000200000000000000000000000,
|
||
#BPMCHANGE 255.21
|
||
#SCROLL 0.99
|
||
000000000000000000000000200000000000000000000000,
|
||
#BPMCHANGE 256
|
||
300000000000000000000000300000000000000000000000,
|
||
#BPMCHANGE 259.01
|
||
#SCROLL 0.98
|
||
000000000000000000000000000000000000000000000000,
|
||
#BPMCHANGE 257
|
||
900000000000000000000000000000000000000000000000,
|
||
#BPMCHANGE 250.75
|
||
#SCROLL 1.01
|
||
000000000000000000000000000000000000000000000000,
|
||
#BPMCHANGE 249.81
|
||
000000000000900000000000000000000000000000000000,
|
||
#BPMCHANGE 254.53
|
||
#SCROLL 0.99
|
||
800000000000000000000000000000000000000000000000,
|
||
#BPMCHANGE 253.22
|
||
#SCROLL 1
|
||
#GOGOSTART
|
||
100000000000100000000000100000000000000000000000,
|
||
100000000000100000000000100000000000000000000000,
|
||
200000000000000000000000200000000000000000000000,
|
||
#BPMCHANGE 254.37
|
||
#SCROLL 0.99
|
||
200000000000000000000000200000000000000000000000,
|
||
100000000000100000000000100000000000000000000000,
|
||
100000000000100000000000100000000000000000000000,
|
||
200000000000000000200000000000000000200000000000,
|
||
#BPMCHANGE 254.62
|
||
100000000000000000000000000000000000000000000000,
|
||
100000000000000000000000200000000000000000000000,
|
||
#BPMCHANGE 255.21
|
||
100000000000100000000000200000000000000000000000,
|
||
#BPMCHANGE 252.48
|
||
#SCROLL 1
|
||
100000000000000000000000200000000000000000000000,
|
||
#BPMCHANGE 255.37
|
||
#SCROLL 0.99
|
||
100000000000000000000000000000000000000000000000,
|
||
#BPMCHANGE 252.67
|
||
#SCROLL 1
|
||
500000000000000000000000000000000000000000000008,
|
||
#BPMCHANGE 253.06
|
||
000000000000000000000000300000000000000000000000,
|
||
300000000000000000000000000000000000000000000000,
|
||
#BPMCHANGE 254.15
|
||
#SCROLL 0.99
|
||
700000000000000000000000000000000000800000000000,
|
||
100000000000100000000000100000000000000000000000,
|
||
100000000000100000000000100000000000000000000000,
|
||
200000000000000000000000200000000000000000000000,
|
||
200000000000000000000000200000000000000000000000,
|
||
#BPMCHANGE 252.68
|
||
#SCROLL 1
|
||
100000000000100000000000100000000000000000000000,
|
||
100000000000100000000000100000000000000000000000,
|
||
#BPMCHANGE 255.6
|
||
#SCROLL 0.99
|
||
200000000000000000200000000000000000200000000000,
|
||
#BPMCHANGE 257.59
|
||
#SCROLL 0.98
|
||
100000000000000000000000000000000000000000000000,
|
||
#BPMCHANGE 252.67
|
||
#SCROLL 1
|
||
100000000000000000000000200000000000000000000000,
|
||
#BPMCHANGE 252.57
|
||
100000000000100000000000200000000000000000000000,
|
||
#BPMCHANGE 253.95
|
||
300000000000000000000000300000000000000000000000,
|
||
#BPMCHANGE 259.25
|
||
#SCROLL 0.97
|
||
300000000000000000000000000000000000000000000000,
|
||
#BPMCHANGE 248.88
|
||
#SCROLL 1.02
|
||
300000000000000000000000000000000000000000000000,
|
||
#BPMCHANGE 257.79
|
||
#SCROLL 0.98
|
||
300000000000000000000000000000000000000000000000,
|
||
#BPMCHANGE 254.81
|
||
#SCROLL 0.99
|
||
300000000000300000000000300000000000000000000000,
|
||
#GOGOEND
|
||
300000000000000000000000000000000000000000000000,
|
||
#BPMCHANGE 248.56
|
||
#SCROLL 1.02
|
||
000000000000000000000000400000000000000000000000,
|
||
#BPMCHANGE 254.36
|
||
#SCROLL 0.99
|
||
000000000000100000000000200000000000000000000000,
|
||
#BPMCHANGE 259.01
|
||
#SCROLL 0.98
|
||
000000000000100000000000200000000000000000000000,
|
||
#BPMCHANGE 248.69
|
||
#SCROLL 1.02
|
||
000000000000100000000000200000000000000000000000,
|
||
#BPMCHANGE 256
|
||
#SCROLL 0.99
|
||
100000000000100000000000200000000000000000000000,
|
||
#BPMCHANGE 251.52
|
||
#SCROLL 1
|
||
000000000000100000000000200000000000000000000000,
|
||
#BPMCHANGE 254.09
|
||
#SCROLL 0.99
|
||
000000000000100000000000200000000000000000000000,
|
||
#BPMCHANGE 257.94
|
||
#SCROLL 0.98
|
||
000000000000100000000000200000000000000000000000,
|
||
#BPMCHANGE 250.35
|
||
#SCROLL 1.01
|
||
200000000000000000000000000000000000000000000000,
|
||
#BPMCHANGE 254.48
|
||
#SCROLL 0.99
|
||
#GOGOSTART
|
||
100000000000100000000000200000000000000000000000,
|
||
#BPMCHANGE 254.48
|
||
100000000000100000000000200000000000000000000000,
|
||
#BPMCHANGE 256.12
|
||
200000000000000000200000000000000000200000000000,
|
||
#BPMCHANGE 252.88
|
||
#SCROLL 1
|
||
000000000000000000000000000000000000000000000000,
|
||
#BPMCHANGE 248.49
|
||
#SCROLL 1.02
|
||
100000000000100000000000100000000000000000000000,
|
||
#BPMCHANGE 260.25
|
||
#SCROLL 0.97
|
||
100000000000100000000000100000000000200000000000,
|
||
#BPMCHANGE 252.1
|
||
#SCROLL 1
|
||
#GOGOEND
|
||
000000000000000000000000000000000000000000000000,
|
||
#BPMCHANGE 253.54
|
||
300000000000000000000000000000000000000000000000,
|
||
|
||
|
||
#END
|
||
|
||
|
||
COURSE:Easy
|
||
LEVEL:3
|
||
BALLOON:10,3
|
||
|
||
|
||
#START
|
||
|
||
|
||
300000000000000000000000000000000000000000000000,
|
||
#BPMCHANGE 126.63
|
||
200000000000000000000000200000000000000000000000,
|
||
#BPMCHANGE 127.06
|
||
100000000000000000000000000000000000000000000000,
|
||
#BPMCHANGE 127.7
|
||
200000000000000000000000200000000000000000000000,
|
||
#BPMCHANGE 127.38
|
||
100000000000000000000000100000000000000000000000,
|
||
#BPMCHANGE 126.08
|
||
300000000000300000000000300000000000300000000000,
|
||
#BPMCHANGE 127.94
|
||
300000000000000000000000000000000000000000000000,
|
||
#BPMCHANGE 127.28
|
||
300000000000000000000000000000000000000000000000,
|
||
#BPMCHANGE 126.45
|
||
#MEASURE 2/4
|
||
000000000000000000000000,
|
||
#BPMCHANGE 254.18
|
||
#SCROLL 0.99
|
||
#GOGOSTART
|
||
#MEASURE 4/4
|
||
100000000000000000000000000000000000000000000000,
|
||
#BPMCHANGE 255.8
|
||
100000000000000000000000000000000000000000000000,
|
||
#BPMCHANGE 253.81
|
||
#SCROLL 1
|
||
100000000000000000000000100000000000000000000000,
|
||
#BPMCHANGE 259.44
|
||
#SCROLL 0.97
|
||
100000000000000000000000000000000000000000000000,
|
||
#BPMCHANGE 252.1
|
||
#SCROLL 1
|
||
100000000000000000000000000000000000000000000000,
|
||
#BPMCHANGE 252.09
|
||
100000000000000000000000000000000000000000000000,
|
||
100000000000000000000000100000000000000000000000,
|
||
#BPMCHANGE 252.66
|
||
100000000000000000000000000000000000000000000000,
|
||
#BPMCHANGE 254.25
|
||
#SCROLL 0.99
|
||
100000000000000000000000100000000000000000000000,
|
||
#BPMCHANGE 255.21
|
||
200000000000000000000000000000000000000000000000,
|
||
#BPMCHANGE 255.8
|
||
500000000000000000000000000000000000000000000000,
|
||
#BPMCHANGE 256.63
|
||
#SCROLL 0.98
|
||
000000000000000000000008000000000000000000000000,
|
||
#BPMCHANGE 250.19
|
||
#SCROLL 1.01
|
||
100000000000000000000000100000000000000000000000,
|
||
#BPMCHANGE 254.44
|
||
#SCROLL 0.99
|
||
200000000000000000000000000000000000000000000000,
|
||
#BPMCHANGE 250.95
|
||
#SCROLL 1.01
|
||
#GOGOEND
|
||
000000000000000000000000000000000000000000000000,
|
||
#BPMCHANGE 256
|
||
#SCROLL 0.99
|
||
000000000000000000000000000000000000000000000000,
|
||
#BPMCHANGE 252.75
|
||
#SCROLL 1
|
||
100000000000000000000000000000000000000000000000,
|
||
#BPMCHANGE 257.12
|
||
#SCROLL 0.98
|
||
100000000000000000000000000000000000000000000000,
|
||
#BPMCHANGE 250.96
|
||
#SCROLL 1.01
|
||
100000000000000000000000000000000000000000000000,
|
||
#BPMCHANGE 251.69
|
||
#SCROLL 1
|
||
100000000000000000000000000000000000000000000000,
|
||
#BPMCHANGE 255.16
|
||
#SCROLL 0.99
|
||
200000000000000000000000000000000000000000000000,
|
||
200000000000000000000000000000000000000000000000,
|
||
#BPMCHANGE 252.57
|
||
#SCROLL 1
|
||
200000000000000000000000000000000000000000000000,
|
||
#BPMCHANGE 255.46
|
||
#SCROLL 0.99
|
||
300000000000000000000000300000000000000000000000,
|
||
#BPMCHANGE 252.24
|
||
#SCROLL 1
|
||
100000000000000000000000100000000000000000000000,
|
||
#BPMCHANGE 254.91
|
||
#SCROLL 0.99
|
||
100000000000000000000000000000000000000000000000,
|
||
100000000000000000000000100000000000000000000000,
|
||
#BPMCHANGE 253.97
|
||
#SCROLL 1
|
||
100000000000000000000000000000000000000000000000,
|
||
100000000000000000000000100000000000000000000000,
|
||
#BPMCHANGE 261.79
|
||
#SCROLL 0.97
|
||
100000000000000000000000000000000000000000000000,
|
||
#BPMCHANGE 250.95
|
||
#SCROLL 1.01
|
||
000000000000000000000000000000000000000000000000,
|
||
#BPMCHANGE 253.31
|
||
#SCROLL 1
|
||
000000000000000000000000000000000000000000000000,
|
||
#BPMCHANGE 250.51
|
||
#SCROLL 1.01
|
||
100000000000000000000000200000000000000000000000,
|
||
#BPMCHANGE 253.76
|
||
#SCROLL 1
|
||
100000000000000000000000000000000000000000000000,
|
||
#BPMCHANGE 254
|
||
100000000000000000000000200000000000000000000000,
|
||
100000000000000000000000000000000000000000000000,
|
||
100000000000000000000000200000000000000000000000,
|
||
100000000000000000000000000000000000000000000000,
|
||
100000000000000000000000200000000000000000000000,
|
||
#BPMCHANGE 258.45
|
||
#SCROLL 0.98
|
||
100000000000000000000000000000000000000000000000,
|
||
#BPMCHANGE 251.83
|
||
#SCROLL 1
|
||
100000000000000000000000200000000000000000000000,
|
||
100000000000000000000000200000000000000000000000,
|
||
#BPMCHANGE 254
|
||
100000000000000000000000200000000000000000000000,
|
||
100000000000000000000000000000000000000000000000,
|
||
100000000000000000000000200000000000000000000000,
|
||
100000000000000000000000200000000000000000000000,
|
||
#BPMCHANGE 249.31
|
||
#SCROLL 1.01
|
||
000000000000000000000000000000000000000000000000,
|
||
#BPMCHANGE 257.79
|
||
#SCROLL 0.98
|
||
000000000000000000000000000000000000000000000000,
|
||
#BPMCHANGE 252.67
|
||
#SCROLL 1
|
||
000000000000000000000000200000000000000000000000,
|
||
#BPMCHANGE 255.21
|
||
#SCROLL 0.99
|
||
000000000000000000000000200000000000000000000000,
|
||
#BPMCHANGE 256
|
||
300000000000000000000000300000000000000000000000,
|
||
#BPMCHANGE 259.01
|
||
#SCROLL 0.98
|
||
000000000000000000000000000000000000000000000000,
|
||
#BPMCHANGE 257
|
||
900000000000000000000000000000000000000000000000,
|
||
#BPMCHANGE 250.75
|
||
#SCROLL 1.01
|
||
000000000000000000000000000000000000000000000000,
|
||
#BPMCHANGE 249.81
|
||
000000000000900000000000000000000000000000000000,
|
||
#BPMCHANGE 254.53
|
||
#SCROLL 0.99
|
||
800000000000000000000000000000000000000000000000,
|
||
#BPMCHANGE 253.22
|
||
#SCROLL 1
|
||
#GOGOSTART
|
||
100000000000000000000000100000000000000000000000,
|
||
100000000000000000000000100000000000000000000000,
|
||
200000000000000000000000000000000000000000000000,
|
||
#BPMCHANGE 254.37
|
||
#SCROLL 0.99
|
||
200000000000000000000000000000000000000000000000,
|
||
100000000000000000000000100000000000000000000000,
|
||
100000000000000000000000100000000000000000000000,
|
||
200000000000000000000000000000000000000000000000,
|
||
#BPMCHANGE 254.62
|
||
200000000000000000000000000000000000000000000000,
|
||
100000000000000000000000000000000000000000000000,
|
||
#BPMCHANGE 255.21
|
||
200000000000000000000000000000000000000000000000,
|
||
#BPMCHANGE 252.48
|
||
#SCROLL 1
|
||
100000000000000000000000100000000000000000000000,
|
||
#BPMCHANGE 255.37
|
||
#SCROLL 0.99
|
||
100000000000000000000000000000000000000000000000,
|
||
#BPMCHANGE 252.67
|
||
#SCROLL 1
|
||
500000000000000000000000000000000000000000000008,
|
||
#BPMCHANGE 253.06
|
||
000000000000000000000000300000000000000000000000,
|
||
300000000000000000000000000000000000000000000000,
|
||
#BPMCHANGE 254.15
|
||
#SCROLL 0.99
|
||
700000000000000000000000000000000000800000000000,
|
||
100000000000000000000000100000000000000000000000,
|
||
100000000000000000000000100000000000000000000000,
|
||
200000000000000000000000000000000000000000000000,
|
||
200000000000000000000000000000000000000000000000,
|
||
#BPMCHANGE 252.68
|
||
#SCROLL 1
|
||
100000000000000000000000100000000000000000000000,
|
||
100000000000000000000000100000000000000000000000,
|
||
#BPMCHANGE 255.6
|
||
#SCROLL 0.99
|
||
200000000000000000000000000000000000000000000000,
|
||
#BPMCHANGE 257.59
|
||
#SCROLL 0.98
|
||
200000000000000000000000000000000000000000000000,
|
||
#BPMCHANGE 252.67
|
||
#SCROLL 1
|
||
100000000000000000000000000000000000000000000000,
|
||
#BPMCHANGE 252.57
|
||
200000000000000000000000000000000000000000000000,
|
||
#BPMCHANGE 253.95
|
||
300000000000000000000000300000000000000000000000,
|
||
#BPMCHANGE 259.25
|
||
#SCROLL 0.97
|
||
300000000000000000000000000000000000000000000000,
|
||
#BPMCHANGE 248.88
|
||
#SCROLL 1.02
|
||
300000000000000000000000000000000000000000000000,
|
||
#BPMCHANGE 257.79
|
||
#SCROLL 0.98
|
||
300000000000000000000000000000000000000000000000,
|
||
#BPMCHANGE 254.81
|
||
#SCROLL 0.99
|
||
300000000000000000000000300000000000000000000000,
|
||
#GOGOEND
|
||
300000000000000000000000000000000000000000000000,
|
||
#BPMCHANGE 248.56
|
||
#SCROLL 1.02
|
||
000000000000000000000000300000000000000000000000,
|
||
#BPMCHANGE 254.36
|
||
#SCROLL 0.99
|
||
000000000000000000000000200000000000000000000000,
|
||
#BPMCHANGE 259.01
|
||
#SCROLL 0.98
|
||
000000000000000000000000200000000000000000000000,
|
||
#BPMCHANGE 248.69
|
||
#SCROLL 1.02
|
||
000000000000000000000000200000000000000000000000,
|
||
#BPMCHANGE 256
|
||
#SCROLL 0.99
|
||
000000000000000000000000200000000000000000000000,
|
||
#BPMCHANGE 251.52
|
||
#SCROLL 1
|
||
000000000000000000000000200000000000000000000000,
|
||
#BPMCHANGE 254.09
|
||
#SCROLL 0.99
|
||
000000000000000000000000200000000000000000000000,
|
||
#BPMCHANGE 257.94
|
||
#SCROLL 0.98
|
||
000000000000000000000000200000000000000000000000,
|
||
#BPMCHANGE 250.35
|
||
#SCROLL 1.01
|
||
200000000000000000000000000000000000000000000000,
|
||
#BPMCHANGE 254.48
|
||
#SCROLL 0.99
|
||
#GOGOSTART
|
||
100000000000000000000000100000000000000000000000,
|
||
#BPMCHANGE 254.48
|
||
100000000000000000000000100000000000000000000000,
|
||
#BPMCHANGE 256.12
|
||
500000000000000000000000000000000000000000000000,
|
||
#BPMCHANGE 252.88
|
||
#SCROLL 1
|
||
000000000000000000000080000000000000000000000000,
|
||
#BPMCHANGE 248.49
|
||
#SCROLL 1.02
|
||
100000000000000000000000100000000000000000000000,
|
||
#BPMCHANGE 260.25
|
||
#SCROLL 0.97
|
||
100000000000000000000000100000000000000000000000,
|
||
#BPMCHANGE 252.1
|
||
#SCROLL 1
|
||
#GOGOEND
|
||
000000000000000000000000000000000000000000000000,
|
||
#BPMCHANGE 253.54
|
||
300000000000000000000000000000000000000000000000,
|
||
|
||
|
||
#END
|
||
|