Files
2023-06-15 19:15:39 -05:00

510 lines
15 KiB
Plaintext

//TJADB Project
TITLE:Tou Hao Tian Xing
TITLEJA:頭號甜心
SUBTITLE:--Angela Chang/Coffee Prince
BPM:145.66
WAVE:Tou Hao Tian Xing.ogg
OFFSET:-6.735
DEMOSTART:13.310
COURSE:Oni
LEVEL:6
SCOREINIT:760
SCOREDIFF:180
#START
100000000000200000000000000000000000200000000000,
100000000000200000000000000000000000200000000000,
100000000000200000000000000000000000200000000000,
#BPMCHANGE 147.1
100000000000200000100000100000000000300000000000,
#BPMCHANGE 145.61
100000000000200000000000100000100000200000200000,
#BPMCHANGE 146.39
100000000000200000100000100000100000200000200000,
#BPMCHANGE 146
100000000000200000000000100000100000200000200000,
100000000200200000000200200000000200200000000000,
100000000000200000000000100000100000200000200000,
#BPMCHANGE 145.55
100000000000200000100000100000100000200000200000,
#BPMCHANGE 146.45
100000000000200000000000100000100000200000200000,
#BPMCHANGE 144.46
100000000200200000000200200000000200200000000000,
#BPMCHANGE 147.58
100000100000200000100000000000100000200000100000,
#BPMCHANGE 146
100000100000200000100000000000100100200000000000,
#BPMCHANGE 145.49
100000100000200000100000000000100000200000100000,
#BPMCHANGE 146.52
100000100000200000100000000000100100200000000000,
#BPMCHANGE 146
100000100000200000100000000000100000200000100000,
#BPMCHANGE 145.5
100000100000200000100000000000100100200000000000,
#BPMCHANGE 146.5
100000100000200000000000100000100000200000100000,
#BPMCHANGE 146
100000200000200000200000100000100100200000000000,
#BPMCHANGE 145.78
100000100000200000100000000000100000200000100000,
#BPMCHANGE 146.61
100000100000200000100000000000100100200000100000,
#BPMCHANGE 145.58
100000100000200000100000000000100000200000100000,
#BPMCHANGE 146.09
100000100000200000100000000000100100200000000000,
#BPMCHANGE 145.95
100000100000200000100000000000100000200000100000,
#BPMCHANGE 145.71
100000100000200000100000000000100100200000100000,
#BPMCHANGE 146.35
100000100000200000100000000000100000200000100000,
#BPMCHANGE 145.94
100000200000100000200000100000100100200000000000,
#GOGOSTART
#BPMCHANGE 145.47
100000100100200000200000100000200000100000200000,
#BPMCHANGE 146.09
100000100100200000100000000000100100200000100100,
#BPMCHANGE 146.44
100000000000200000200000100000200000100000200000,
#BPMCHANGE 146
100000100100200000100000000000100100200000000000,
#BPMCHANGE 145.58
100000100100200000200000100000200000100000200000,
#BPMCHANGE 145.83
100000100100200000100000000000100100200000100000,
100000100100200000200000100100100000000000200000,
#BPMCHANGE 147.13
000000100100200000100100200000100100200000200000,
#BPMCHANGE 145.64
100000100100200000200000100000200000100000200000,
#BPMCHANGE 146
100000100100200000100000000000100100200000100100,
#BPMCHANGE 145.1
100000000000200000200000100000200000100000200000,
#BPMCHANGE 146.61
100000100100200000100000000000100100200000100000,
#BPMCHANGE 145.58
100000100100200000200000100000200000100000200000,
#BPMCHANGE 146.35
100000100100200000100000000000100100200000100000,
#BPMCHANGE 146.09
100000100100200000100100100000000000200000000000,
#BPMCHANGE 144.31
300000000000000000000000300000000000000000000000,
#GOGOEND
#BPMCHANGE 147.13
600000000000000000000000000000000000000000000008,
#BPMCHANGE 146.61
000000000000000000000000000000000000000000000000,
#BPMCHANGE 146.27
000000000000000000000000000000000000000000000000,
#BPMCHANGE 145.4
100000000200200000000200200000000200200000000200,
#BPMCHANGE 145.83
100000000000200000000000100000100000200000200000,
#BPMCHANGE 145.32
100000000000200000100000100000100000200000200000,
#BPMCHANGE 147.39
100000000000200000000000100000100000200000200000,
#BPMCHANGE 145.58
100000000200200000000200200000000200200000000000,
#BPMCHANGE 146.5
100000000000200000000000100000100000200000200000,
#BPMCHANGE 144.92
100000000000200000100000100000100000200000200000,
#BPMCHANGE 146.61
100000000000200000000000100000100000200000200000,
#BPMCHANGE 146.09
100000000200200000000200200000000200200000000000,
#BPMCHANGE 146
300000000000000000000000000000000000000000000000,
#END
COURSE:Hard
LEVEL:6
SCOREINIT:840
SCOREDIFF:220
#START
100000000000200000000000000000000000200000000000,
100000000000200000000000000000000000200000000000,
100000000000200000000000000000000000200000000000,
#BPMCHANGE 147.1
100000000000200000100000100000000000300000000000,
#BPMCHANGE 145.61
100000000000100000000000100000100000200000200000,
#BPMCHANGE 146.39
000000000000000000100000100000100000200000200000,
#BPMCHANGE 146
000000000000100000000000100000100000200000400000,
000000000000000000000000000000000000000000000000,
100000000000100000000000100000100000200000200000,
#BPMCHANGE 145.55
000000000000000000100000100000100000200000200000,
#BPMCHANGE 146.45
000000000000100000000000100000100000200000400000,
#BPMCHANGE 144.46
000000000000000000000000000000000000000000000000,
#BPMCHANGE 147.58
100000000000200000100000000000100000200000100000,
#BPMCHANGE 146
100000000000200000100000000000100000200000000000,
#BPMCHANGE 145.49
100000000000200000100000000000100000200000100000,
#BPMCHANGE 146.52
100000000000200000100000000000100000200000000000,
#BPMCHANGE 146
100000000000200000100000000000100000200000100000,
#BPMCHANGE 145.5
100000000000200000100000000000100000200000000000,
#BPMCHANGE 146.5
100000100000200000100000000000100000200000100000,
#BPMCHANGE 146
100000000000000000000000000000000000000000000000,
#BPMCHANGE 145.78
100000000000200000100000000000100000200000100000,
#BPMCHANGE 146.61
100000000000200000100000000000100000200000100000,
#BPMCHANGE 145.58
100000000000200000000000100000100000200000100000,
#BPMCHANGE 146.09
000000100000200000000000100000100000200000000000,
#BPMCHANGE 145.95
100000000000200000100000000000100000200000100000,
#BPMCHANGE 145.71
100000000000200000100000000000100000200000100000,
#BPMCHANGE 146.35
100000000000200000100000000000100000200000100000,
#BPMCHANGE 145.94
000000100000100000100000000000000000000000000000,
#GOGOSTART
#BPMCHANGE 145.47
100000100000200000000000100000200000100000200000,
#BPMCHANGE 146.09
100000100000200000100000000000100100100000000000,
#BPMCHANGE 146.44
100000100000200000000000100000200000100000200000,
#BPMCHANGE 146
100000100000200000100000000000100000200000000000,
#BPMCHANGE 145.58
100000100000200000000000100000200000100000200000,
#BPMCHANGE 145.83
100000100000200000100000000000100100100000000000,
100000100000200000000000100000100000200000100000,
#BPMCHANGE 147.13
000000100000100000100000100000100100100000000000,
#BPMCHANGE 145.64
100000100000200000000000100000200000100000200000,
#BPMCHANGE 146
100000100000200000100000000000100100100000000000,
#BPMCHANGE 145.1
100000100000200000000000100000200000100000200000,
#BPMCHANGE 146.61
100000100000200000100000000000100100100000000000,
#BPMCHANGE 145.58
100000100000200000000000100000200000100000200000,
#BPMCHANGE 146.35
100000100000200000100000000000100100100000000000,
#BPMCHANGE 146.09
100000100000200000100000000000100000200000000000,
#BPMCHANGE 144.31
300000000000000000000000300000000000000000000000,
#GOGOEND
#BPMCHANGE 147.13
600000000000000000000000000000000000800000000000,
#BPMCHANGE 146.61
000000000000000000000000000000000000000000000000,
#BPMCHANGE 146.27
000000000000000000000000000000000000000000000000,
#BPMCHANGE 145.4
000000000000000000000000000000000000000000000000,
#BPMCHANGE 145.83
100000000000100000000000100000100000200000200000,
#BPMCHANGE 145.32
000000000000000000100000100000100000200000200000,
#BPMCHANGE 147.39
000000000000100000000000100000100000200000400000,
#BPMCHANGE 145.58
000000000000000000000000000000000000000000000000,
#BPMCHANGE 146.5
100000000000100000000000100000100000200000200000,
#BPMCHANGE 144.92
000000000000000000100000100000100000200000200000,
#BPMCHANGE 146.61
000000000000100000000000100000100000200000400000,
#BPMCHANGE 146.09
000000200000200000000000200000000000200000000000,
#BPMCHANGE 146
300000000000000000000000000000000000000000000000,
#END
COURSE:Normal
LEVEL:4
#START
000000000000000000000000000000000000000000000000,
000000000000000000000000000000000000000000000000,
000000000000000000000000000000000000000000000000,
#BPMCHANGE 147.1
300000000000000000000000000000000000000000000000,
#BPMCHANGE 145.61
100000000000100000000000100000000000100000100000,
#BPMCHANGE 146.39
000000000000000000000000100000000000000000000000,
#BPMCHANGE 146
100000000000100000000000100000000000100000100000,
000000000000000000000000000000000000000000000000,
100000000000100000000000100000000000100000100000,
#BPMCHANGE 145.55
000000000000000000000000100000000000000000000000,
#BPMCHANGE 146.45
100000000000100000000000100000000000100000100000,
#BPMCHANGE 144.46
000000000000000000000000000000000000000000000000,
#BPMCHANGE 147.58
100000000000000000000000100000100000100000000000,
#BPMCHANGE 146
100000000000200000000000100000000000000000000000,
#BPMCHANGE 145.49
100000000000000000000000100000100000100000000000,
#BPMCHANGE 146.52
100000000000200000000000100000000000000000000000,
#BPMCHANGE 146
100000000000000000000000100000100000100000000000,
#BPMCHANGE 145.5
100000000000200000000000100000000000000000000000,
#BPMCHANGE 146.5
100000000000000000000000100000100000100000000000,
#BPMCHANGE 146
100000000000000000000000000000000000000000000000,
#BPMCHANGE 145.78
100000000000000000000000100000100000100000000000,
#BPMCHANGE 146.61
100000000000200000000000100000000000200000000000,
#BPMCHANGE 145.58
100000000000000000000000100000100000100000000000,
#BPMCHANGE 146.09
300000000000000000000000000000000000000000000000,
#BPMCHANGE 145.95
100000000000000000000000100000100000100000000000,
#BPMCHANGE 145.71
100000000000200000000000100000000000200000000000,
#BPMCHANGE 146.35
100000000000100000100000000000100000000000100000,
#BPMCHANGE 145.94
500000000000000000000000000000000800000000000000,
#GOGOSTART
#BPMCHANGE 145.47
100000000000200000000000100000100000100000000000,
#BPMCHANGE 146.09
100000000000200000000000000000000000200000000000,
#BPMCHANGE 146.44
100000000000200000000000100000100000100000000000,
#BPMCHANGE 146
100000000000200000000000000000000000200000000000,
#BPMCHANGE 145.58
100000000000100000000000100000000000000000000000,
#BPMCHANGE 145.83
100000000000100000100000000000000000000000000000,
100000000000100000000000100000000000000000000000,
#BPMCHANGE 147.13
300000000000000000000000000000000000000000000000,
#BPMCHANGE 145.64
100000000000200000000000100000100000100000000000,
#BPMCHANGE 146
100000000000200000000000000000000000200000000000,
#BPMCHANGE 145.1
100000000000200000000000100000100000100000000000,
#BPMCHANGE 146.61
100000000000200000000000000000000000200000000000,
#BPMCHANGE 145.58
100000000000100000000000100000000000000000000000,
#BPMCHANGE 146.35
100000000000100000100000000000000000000000000000,
#BPMCHANGE 146.09
100000000000100000000000100000000000000000000000,
#BPMCHANGE 144.31
300000000000000000000000300000000000000000000000,
#GOGOEND
#BPMCHANGE 147.13
600000000000000000000000000000000000000000000800,
#BPMCHANGE 146.61
000000000000000000000000000000000000000000000000,
#BPMCHANGE 146.27
000000000000000000000000000000000000000000000000,
#BPMCHANGE 145.4
000000000000000000000000000000000000000000000000,
#BPMCHANGE 145.83
100000000000100000000000100000000000100000100000,
#BPMCHANGE 145.32
000000000000000000000000100000000000000000000000,
#BPMCHANGE 147.39
100000000000100000000000100000000000100000100000,
#BPMCHANGE 145.58
000000000000000000000000000000000000000000000000,
#BPMCHANGE 146.5
100000000000100000000000100000000000100000100000,
#BPMCHANGE 144.92
000000000000000000000000100000000000000000000000,
#BPMCHANGE 146.61
100000000000100000000000100000000000100000100000,
#BPMCHANGE 146.09
000000000000000000000000000000000000000000000000,
#BPMCHANGE 146.09
300000000000000000000000000000000000000000000000,
#END
COURSE:Easy
LEVEL:3
BALLOON:15
#START
000000000000000000000000000000000000000000000000,
000000000000000000000000000000000000000000000000,
000000000000000000000000000000000000000000000000,
#BPMCHANGE 147.1
300000000000000000000000000000000000000000000000,
#BPMCHANGE 145.61
100000000000100000000000100000000000000000000000,
#BPMCHANGE 146.39
100000000000000000000000100000000000000000000000,
#BPMCHANGE 146
100000000000100000000000100000000000000000000000,
100000000000000000000000000000000000000000000000,
100000000000100000000000100000000000000000000000,
#BPMCHANGE 145.55
100000000000000000000000100000000000000000000000,
#BPMCHANGE 146.45
100000000000100000000000100000000000000000000000,
#BPMCHANGE 144.46
100000000000000000000000000000000000000000000000,
#BPMCHANGE 147.58
100000000000000000000000100000000000000000000000,
#BPMCHANGE 146
100000000000000000000000000000000000000000000000,
#BPMCHANGE 145.49
100000000000000000000000100000000000000000000000,
#BPMCHANGE 146.52
100000000000000000000000000000000000000000000000,
#BPMCHANGE 146
100000000000000000000000100000000000000000000000,
#BPMCHANGE 145.5
100000000000000000000000000000000000000000000000,
#BPMCHANGE 146.5
100000000000000000000000100000000000100000000000,
#BPMCHANGE 146
100000000000000000000000000000000000000000000000,
#BPMCHANGE 145.78
100000000000000000000000100000000000000000000000,
#BPMCHANGE 146.61
100000000000000000000000000000000000000000000000,
#BPMCHANGE 145.58
100000000000000000000000100000000000000000000000,
#BPMCHANGE 146.09
100000000000000000000000000000000000000000000000,
#BPMCHANGE 145.95
100000000000000000000000100000000000000000000000,
#BPMCHANGE 145.71
100000000000000000000000000000000000000000000000,
#BPMCHANGE 146.35
100000000000000000000000100000000000000000000000,
#BPMCHANGE 145.94
100000000000000000000000000000000000000000000000,
#GOGOSTART
#BPMCHANGE 145.47
000000000000000000000000100000000000100000000000,
#BPMCHANGE 146.09
100000000000000000000000200000000000000000000000,
#BPMCHANGE 146.44
100000000000000000000000100000000000100000000000,
#BPMCHANGE 146
100000000000000000000000200000000000000000000000,
#BPMCHANGE 145.58
100000000000000000000000100000000000000000000000,
#BPMCHANGE 145.83
200000000000000000000000000000000000100000000000,
100000000000000000000000100000000000000000000000,
#BPMCHANGE 147.13
300000000000300000000000300000000000300000000000,
#BPMCHANGE 145.64
000000000000000000000000100000000000100000000000,
#BPMCHANGE 146
100000000000000000000000200000000000000000000000,
#BPMCHANGE 145.1
100000000000000000000000100000000000100000000000,
#BPMCHANGE 146.61
100000000000000000000000200000000000000000000000,
#BPMCHANGE 145.58
100000000000000000000000100000000000000000000000,
#BPMCHANGE 146.35
200000000000000000000000000000000000100000000000,
#BPMCHANGE 146.09
100000000000000000000000100000000000000000000000,
#BPMCHANGE 144.31
300000000000000000000000300000000000000000000000,
#GOGOEND
#BPMCHANGE 147.13
9,
#BPMCHANGE 146.61
8,
#BPMCHANGE 146.27
000000000000000000000000000000000000000000000000,
#BPMCHANGE 145.4
000000000000000000000000000000000000000000000000,
#BPMCHANGE 145.83
100000000000100000000000100000000000000000000000,
#BPMCHANGE 145.32
100000000000000000000000100000000000000000000000,
#BPMCHANGE 147.39
100000000000100000000000100000000000000000000000,
#BPMCHANGE 145.58
100000000000000000000000000000000000000000000000,
#BPMCHANGE 146.5
100000000000100000000000100000000000000000000000,
#BPMCHANGE 144.92
100000000000000000000000100000000000000000000000,
#BPMCHANGE 146.61
100000000000100000000000100000000000000000000000,
#BPMCHANGE 146.09
100000000000000000000000000000000000000000000000,
#BPMCHANGE 146
300000000000000000000000000000000000000000000000,
#END