Files
2023-06-15 19:15:39 -05:00

784 lines
11 KiB
Plaintext

//TJADB Project
TITLE:Toxic
TITLEJA:Toxic
SUBTITLE:--Britney Spears
BPM:143
WAVE:Toxic.ogg
OFFSET:-3.838
DEMOSTART:57.063
COURSE:Oni
LEVEL:5
STYLE:Double
#START P1
,
,
1000111110001110,
40102210,
1001202010012020,
1001202010101000,
,
1000201010012000,
1000201010222000,
1022202010012000,
1022202010012000,
1001102010001000,
1000111110001110,
40102210,
1001101010222000,
1001100010222000,
1001100010222000,
1001102010101000,
1001102010101000,
1000102010011000,
1001202010012020,
1001202010101000,
00111010,
10111000,
1000201000012000,
1000201000012000,
0202,
1001200010102000,
1000111110001110,
40102110,
1,
,
#GOGOSTART
1001201020202000,
1001201020202000,
0333,
1011102010222000,
1000101110001000,
100000005000000000000000000000000008000000000000,
1001200010012000,
1001200030303000,
20122122,
12212220,
1001201010012000,
10113330,
1001101010011010,
1001101010111000,
1001202010012020,
1001202010101000,
3,
#GOGOEND
#END
#START P2
,
,
1001202010012020,
1001202010101000,
1000111110001110,
40102110,
,
1001100010222000,
1001100010222000,
1001102010101000,
1001102010101000,
1000102010011000,
1001202010012020,
1001202010101000,
1022201010011000,
1000201010012000,
1000201010012000,
1022202010012000,
1022202010012000,
1001102010001000,
1000111110001110,
40102210,
1000201000012000,
1000201000012000,
00111010,
10111000,
1001200010102000,
0202,
1001202010012020,
1001202010101000,
,
1,
#GOGOSTART
1000101110001000,
100000005000000000000000000000000008000000000000,
1001200010012000,
1001200030303000,
1001201020202000,
1001201020202000,
0333,
1011102010222000,
1001101010011010,
1001101010111000,
1001201010012000,
10113330,
20122122,
12212220,
1000111110001110,
40102210,
3,
#GOGOEND
#END
STYLE:Single
#START
,
,
1000111110001110,
4000100020101000,
1000111110001110,
4000100020101000,
,
1001201010012000,
1001201010222000,
1001201010012000,
1001201010222000,
1001102010001000,
1000111110001110,
4000100020101000,
1001201010012000,
1001201010101000,
1001201010012000,
1001201010101000,
1001101020202000,
1001101020202000,
1000111110001110,
4000100020101000,
1000201010012000,
1000201010012000,
1000201010012000,
1000201010012000,
1001200010102000,
1001200010102000,
1000111110001110,
4000100020101000,
1,
1,
#GOGOSTART
1001201020202000,
1001201020202000,
0000300030003000,
1022200030303000,
1001201020202000,
500000000000000000000000000000000008000000000000,
1001201010012000,
1000100030303000,
1001201010111000,
1001201010111000,
1001200010012000,
1000100030303000,
1001201010111000,
1001201010111000,
1000111110001110,
4000100020101000,
3,
#GOGOEND
#END
COURSE:Hard
LEVEL:5
STYLE:Double
SCOREINIT:900
SCOREDIFF:180
#START P1
,
,
1000111110001110,
40102210,
1001202010012020,
1001202010101000,
,
1000201010012000,
1000201010222000,
1022202010012000,
1022202010012000,
1001102010001000,
1000111110001110,
40102210,
1001101010222000,
1001100010222000,
1001100010222000,
1001102010101000,
1001102010101000,
1000102010011000,
1001202010012020,
1001202010101000,
00111010,
10111000,
1000201000012000,
1000201000012000,
0202,
1001200010102000,
1000111110001110,
40102110,
1,
,
#GOGOSTART
1001201020202000,
1001201020202000,
0333,
1011102010222000,
1000101110001000,
100000005000000000000000000000000008000000000000,
1001200010012000,
1001200030303000,
20122122,
12212220,
1001201010012000,
10113330,
1001101010011010,
1001101010111000,
1001202010012020,
1001202010101000,
3,
#GOGOEND
#END
#START P2
,
,
1001202010012020,
1001202010101000,
1000111110001110,
40102110,
,
1001100010222000,
1001100010222000,
1001102010101000,
1001102010101000,
1000102010011000,
1001202010012020,
1001202010101000,
1022201010011000,
1000201010012000,
1000201010012000,
1022202010012000,
1022202010012000,
1001102010001000,
1000111110001110,
40102210,
1000201000012000,
1000201000012000,
00111010,
10111000,
1001200010102000,
0202,
1001202010012020,
1001202010101000,
,
1,
#GOGOSTART
1000101110001000,
100000005000000000000000000000000008000000000000,
1001200010012000,
1001200030303000,
1001101010011010,
1001101010111000,
1001201010012000,
10113330,
20122122,
12212220,
1000111110001110,
40102210,
3,
#GOGOEND
#END
STYLE:Single
SCOREINIT:780
SCOREDIFF:180
#START
,
,
1000111110001110,
4000100020201000,
1000111110001110,
4000100020201000,
,
1001201010012000,
1001201010222000,
1001201010012000,
1001201010222000,
1001102010001000,
1000111110001110,
4000100020201000,
1001201010012000,
1001201010101000,
1001201010012000,
1001201010101000,
1001101020202000,
1001101020202000,
1000111110001110,
4000100020201000,
1000201010012000,
1000201010012000,
1000201010012000,
1000201010012000,
1001200010102000,
1001200010102000,
1000111110001110,
4000100020201000,
1,
1,
#GOGOSTART
1001201020202000,
1001201020202000,
0000300030003000,
1022200030303000,
1001201020202000,
500000000000000000000000000000000008000000000000,
1001201010012000,
1000100030303000,
1001201010111000,
1001201010111000,
1001200010012000,
1000100030303000,
1001201010111000,
1001201010111000,
1000111110001110,
4000100020201000,
3,
#GOGOEND
#END
COURSE:Normal
LEVEL:5
STYLE:Double
SCOREINIT:970
SCOREDIFF:240
#START P1
,
,
10111010,
40102220,
1001200010012000,
1001200010001000,
,
1000200010012000,
1210,
1000200010012000,
1210,
1000200010012000,
10111010,
40102220,
1001100000000000,
1001100020002000,
1001100020000000,
1001100020002000,
1001100020000000,
1001100020002000,
1001200010012000,
1001200010001000,
10111000,
10111000,
1000201000012000,
1210,
,
1000201000012000,
10111010,
40102220,
,
1,
#GOGOSTART
1000201000012000,
10212020,
0333,
1133,
10111010,
100000000000500000000000000000000008000000000000,
10210030,
10210030,
1212,
20102220,
0000000010012000,
00003330,
1000201000012000,
10210000,
1000201000012000,
1000201000012000,
3,
#GOGOEND
#END
#START P2
,
,
1001200010012000,
1001200010001000,
10111010,
40102220,
,
1001100020002000,
1001100020000000,
1001100020002000,
1001100020000000,
1001100020002000,
1001200010012000,
1001200010001000,
1210,
1000200010012000,
1210,
1000200010012000,
1210,
1000200010012000,
10111010,
40102220,
1000201000012000,
1210,
10111000,
10111000,
1000201000012000,
,
1000201000012000,
1000201000012000,
1,
,
#GOGOSTART
10111010,
100000000000500000000000000000000008000000000000,
10210030,
10210030,
1000201000012000,
10212020,
0333,
1133,
1000201000012000,
10210000,
10210000,
33300000,
2121,
20102220,
10111010,
40102220,
3,
#GOGOEND
#END
STYLE:Single
SCOREINIT:970
SCOREDIFF:240
#START
,
,
1001200010000000,
4000100020202000,
1001200010000000,
4000100020202000,
,
1000200010012000,
1000200010000000,
1000200010012000,
1000200010000000,
1000200010012000,
1001200010000000,
4000100020202000,
1000200010000000,
1001100010001000,
1001100020000000,
1001100020002000,
1001100020000000,
1001100020000000,
1001200010012000,
1001200010000000,
1000201000012000,
1000200010000000,
1000201000012000,
1000200010000000,
1000201000012000,
1000201000000000,
1000101010001000,
4000100020202000,
1,
1,
#GOGOSTART
1000201000002000,
100000000000500000000000000000000008000000000000,
0000300030003000,
1000201020001000,
1000201000002000,
100000000000500000000000000000000008000000000000,
1001200030000000,
1001200030003000,
1000201000012000,
1000100020202000,
1000000010002000,
1000100030303000,
1000201000012000,
1000100020202000,
1000201000012000,
4000100020202000,
3,
#GOGOEND
#END
COURSE:Easy
LEVEL:3
STYLE:Double
SCOREINIT:1080
SCOREDIFF:380
#START P1
,
,
1110,
1120,
12,
10210010,
,
1212,
1210,
1212,
1210,
1212,
1110,
1120,
11,
10210000,
10210020,
10210000,
10210020,
10210000,
12,
10210020,
0110,
11,
12,
11,
,
10210020,
1110,
1120,
1,
,
#GOGOSTART
10210020,
10210000,
0303,
0303,
1210,
500000000000000000000000000000000008000000000000,
33,
33,
2121,
2120,
0102,
0113,
10210000,
10210020,
12,
10210020,
3,
#GOGOEND
#END
#START P2
,
,
12,
12100000,
1110,
1121,
,
10210000,
10210020,
10210000,
10210020,
10210000,
12,
10210020,
11,
1212,
1210,
1212,
1210,
1212,
1110,
1120,
11,
0110,
0102,
0110,
10210020,
,
12,
10210020,
,
1,
#GOGOSTART
1210,
500000000000000000000000000000000008000000000000,
33,
33,
10210020,
10210000,
0303,
0303,
10210000,
10210020,
12,
1013,
2121,
2120,
1110,
1120,
3,
#GOGOEND
#END
STYLE:Single
SCOREINIT:800
SCOREDIFF:360
#START
000000000000000000000000000000000000000000000000,
000000000000000000000000000000000000000000000000,
100000000000100000000000100000000000000000000000,
200000000000000000000000100000000000000000000000,
100000000000100000000000100000000000000000000000,
200000000000000000000000100000000000000000000000,
000000000000000000000000000000000000000000000000,
100000000000200000000000000000000000000000000000,
100000000000200000000000000000000000000000000000,
100000000000200000000000000000000000000000000000,
100000000000200000000000000000000000000000000000,
100000000000200000000000000000000000000000000000,
100000000000100000000000100000000000000000000000,
200000000000000000000000100000000000000000000000,
100000000000000000000000100000000000000000000000,
100000000000200000000000000000000000200000000000,
100000000000200000000000000000000000000000000000,
100000000000200000000000000000000000200000000000,
100000000000200000000000000000000000000000000000,
100000000000200000000000000000000000200000000000,
100000000000100000000000100000000000000000000000,
200000000000000000000000100000000000000000000000,
000000000000100000000000100000000000000000000000,
000000000000100000000000100000000000000000000000,
000000000000200000000000200000000000000000000000,
000000000000200000000000200000000000000000000000,
100000000000200000000000000000000000200000000000,
100000000000200000000000000000000000000000000000,
100000000000100000000000100000000000000000000000,
400000000000000000000000300000000000000000000000,
100000000000000000000000000000000000000000000000,
100000000000000000000000000000000000000000000000,
#GOGOSTART
100000000000200000000000200000000000000000000000,
500000000000000000000000000000000008000000000000,
000000000000300000000000000000000000300000000000,
000000000000300000000000000000000000000000000000,
100000000000200000000000200000000000000000000000,
500000000000000000000000000000000008000000000000,
100000000000100000000000100000000000000000000000,
400000000000000000000000300000000000000000000000,
200000000000100000000000200000000000000000000000,
200000000000100000000000200000000000000000000000,
100000000000100000000000100000000000000000000000,
100000000000000000000000300000000000300000000000,
100000000000200000000000000000000000200000000000,
100000000000200000000000000000000000200000000000,
100000000000100000000000100000000000000000000000,
400000000000000000000000300000000000000000000000,
300000000000000000000000000000000000000000000000,
#GOGOEND
#END