forked from ESE/ESE
288 lines
11 KiB
Plaintext
288 lines
11 KiB
Plaintext
//TJADB Project
|
|
TITLE:True Blue
|
|
TITLEJA:True Blue
|
|
SUBTITLE:--Rainie Yang/ASTRO BOY Tetsuwan Atom
|
|
SUBTITLEJA:楊丞琳
|
|
BPM:131.042
|
|
WAVE:True Blue.ogg
|
|
OFFSET:-2.020
|
|
DEMOSTART:66.007
|
|
|
|
COURSE:Oni
|
|
LEVEL:6
|
|
BALLOON:8
|
|
SCOREINIT:800
|
|
SCOREDIFF:190
|
|
|
|
|
|
#START
|
|
|
|
|
|
300000000000000000300000000000000000300000000000,
|
|
300000000000000000300000000000000000300000300000,
|
|
000000000000000000000000000000000000000000000000,
|
|
000000000000000000000000000000000000000000000000,
|
|
300000000000000000300000000000000000300000000000,
|
|
300000000000000000300000000000000000300000300000,
|
|
000000000000000000000000200200100000100000100000,
|
|
100000002000000020000000100000002000000020000000,
|
|
100000100000200000100000100000000100200000100000,
|
|
100000100000200000000000100000000100200000100000,
|
|
100000100000200000000000100000000100200000100000,
|
|
700000000000000000000000800000000000000000000000,
|
|
500000000000000000000000000000000000000000000000,
|
|
000000000000000000000008000000000000000000000000,
|
|
600000000000000000000000000000000000000000000000,
|
|
000000000000000000000000000000000008000000000000,
|
|
100000100000100200000200100100100000200100100000,
|
|
400000000000000000000000000000000000000000000000,
|
|
100000100100000100200000000000100000200100100000,
|
|
100000100000200000100100100000000100100000100000,
|
|
100000000100000000100100100000000000200000100000,
|
|
100000100000200000000000100000200000100200200000,
|
|
100000100100000100200000000000100000200100100000,
|
|
100000100000200000100100100000000100100000100000,
|
|
100000000100000000100100100000000000200000000000,
|
|
200000200000100000000100200000000000100100100000,
|
|
100000000100200000100000100100000000200000200000,
|
|
100000000100200000100000100000200000200200200000,
|
|
100000000100200000100000100100000200200000200000,
|
|
100000000100200000100000100000200000200200200000,
|
|
100000000100200000100000100100000200200000200000,
|
|
100000000100200000100000100000000000200000000000,
|
|
100000000100000000100000100000000100000000100000,
|
|
300000000300000000300000600000000000000008000000,
|
|
200000002000000020000000200000002000000020000000,
|
|
|
|
#GOGOSTART
|
|
100000000100200000100000100000200200100200200000,
|
|
100000000100200000100000100000100100000100100000,
|
|
100000000100200000100000100000200200100200200000,
|
|
100000000100200000100000200000200000200200000000,
|
|
100000000100200000100000100000200200100200200000,
|
|
100000000100200000100000100000100100000200200000,
|
|
100000000100200000100000100000200200100200200000,
|
|
100000000100000000100100100000000000200200200000,
|
|
100100100000200000100000100100100000200000200000,
|
|
100100100000200000100000100000200000200200200000,
|
|
100100100000200000100000100100100000200000200000,
|
|
100100100000200000100000100000200000200200200000,
|
|
300000000000400000000000300000000000400000000000,
|
|
100000100000000000100000100000200200000200200000,
|
|
100000200000100000200000100000200200200000100000,
|
|
000000100000200000100000100100100100100100100100,
|
|
200000000000000000000000000000000000000000000000,
|
|
|
|
#GOGOEND
|
|
|
|
|
|
#END
|
|
|
|
|
|
COURSE:Hard
|
|
LEVEL:5
|
|
BALLOON:6
|
|
SCOREINIT:820
|
|
SCOREDIFF:220
|
|
|
|
|
|
#START
|
|
|
|
|
|
300000000000000000300000000000000000300000000000,
|
|
300000000000000000300000000000000000300000300000,
|
|
000000000000000000000000000000000000000000000000,
|
|
000000000000000000000000000000000000000000000000,
|
|
300000000000000000300000000000000000300000000000,
|
|
300000000000000000300000000000000000300000300000,
|
|
000000000000000000000000200200200000100000000000,
|
|
100000001000000010000000100000001000000010000000,
|
|
100000000000200000100000100000000000200000100000,
|
|
100000000000200000000000100000100000200000000000,
|
|
100000000000200000100000100000000000200000100000,
|
|
700000000000000000800000000000000000000000000000,
|
|
500000000000000000000000000000000000000000000000,
|
|
000000000000800000000000000000000000000000000000,
|
|
600000000000000000000000000000000000000000000000,
|
|
000000000000000000000000800000000000000000000000,
|
|
100000100000100100000100000000000000100100100000,
|
|
400000000000000000000000000000000000000000000000,
|
|
100000000000100000000100100000100000200000000000,
|
|
100000000000100000000100100000100000200000000000,
|
|
100000000100000000100100100000000000200000000000,
|
|
100000100000200000000000100000200000100000000000,
|
|
100000000000100000000100100000100000200000000000,
|
|
100000000000100000000100100000100000200000000000,
|
|
100000000100000000100100100000000000200000000000,
|
|
100000100000200000000000100000200000100000000000,
|
|
100000000000200000000000100000100000200000200000,
|
|
100000000000200000000000100000100000200000000000,
|
|
100000000000200000000000100000100000200000200000,
|
|
100000000000200000000000100000200000200000000000,
|
|
100000000000200000000000100000100000200000200000,
|
|
100000000000200000000000100000100000200000000000,
|
|
100000000100000000100000100000000100000000100000,
|
|
300000000300000000300000600000000000000000000000,
|
|
000000000000000000000800000000000000000000000000,
|
|
#GOGOSTART
|
|
100000000100100000100000100000000000100000000000,
|
|
100000000100100000100000100000000000200000000000,
|
|
100000000100100000100000100000000000100000000000,
|
|
100000000100100000100000100000000000000000000000,
|
|
100000000100100000100000100000000000100000000000,
|
|
100000000100100000100000100000000000200000000000,
|
|
100000000100100000100000100000000000100000000000,
|
|
100000000100000000100000100000000000200200200000,
|
|
300000000000300000000000300000000000300000000000,
|
|
100000100000200000000100100000100000200000000000,
|
|
400000000000400000000000400000000000400000000000,
|
|
100000100000200000000100100000100000200000000000,
|
|
300000000000400000000000300000000000400000000000,
|
|
100000100000000000100000100000000000200000000000,
|
|
300000000000300000000000400000000000400000000000,
|
|
300000300000000000300000600000000000000000000000,
|
|
000000000000000000000000000000800000000000000000,
|
|
#GOGOEND
|
|
|
|
|
|
#END
|
|
|
|
|
|
COURSE:Normal
|
|
LEVEL:3
|
|
BALLOON:5
|
|
SCOREINIT:970
|
|
SCOREDIFF:290
|
|
|
|
|
|
#START
|
|
|
|
|
|
300000000000000000300000000000000000300000000000,
|
|
300000000000000000300000000000000000300000300000,
|
|
000000000000000000000000000000000000000000000000,
|
|
000000000000000000000000000000000000000000000000,
|
|
300000000000000000300000000000000000300000000000,
|
|
300000000000000000300000000000000000300000300000,
|
|
000000000000000000000000000000000000000000000000,
|
|
500000000000000000000000800000000000000000000000,
|
|
100000000000100000000000100000000000000000000000,
|
|
100000000000100000000000100000000000000000000000,
|
|
100000000000100000000000100000000000100000000000,
|
|
700000000000000000800000000000000000000000000000,
|
|
500000000000000000000000000000000000000000000000,
|
|
000000000000800000000000000000000000000000000000,
|
|
600000000000000000000000000000000000000000000000,
|
|
000000000000000000000000800000000000000000000000,
|
|
100000000000100000000000000000000000100000000000,
|
|
400000000000000000000000000000000000000000000000,
|
|
100000000000100000000000000000000000200000000000,
|
|
100000000000100000000000000000000000200000000000,
|
|
500000000000000000000000800000000000000000000000,
|
|
100000000000100000000000200000000000200000000000,
|
|
100000000000100000000000000000000000200000000000,
|
|
100000000000100000000000000000000000200000000000,
|
|
500000000000000000000000800000000000000000000000,
|
|
100000000000100000000000200000000000200000000000,
|
|
100000000000000000000000100000000000000000000000,
|
|
100000000000100000000000100000000000000000000000,
|
|
100000000000000000000000100000000000000000000000,
|
|
200000000000200000000000200000000000000000000000,
|
|
100000000000000000000000100000000000000000000000,
|
|
100000000000100000000000100000000000000000000000,
|
|
100000000000000000000000100000000000000000000000,
|
|
300000000000000000300000600000000000000000000000,
|
|
000000000000000000800000000000000000000000000000,
|
|
#GOGOSTART
|
|
100000000000100000000000100000000000000000000000,
|
|
100000000000100000000000100000000000000000000000,
|
|
100000000000100000000000100000000000100000000000,
|
|
100000000000000000000000100000000000000000000000,
|
|
100000000000100000000000100000000000000000000000,
|
|
100000000000100000000000100000000000000000000000,
|
|
100000000000100000000000100000000000100000000000,
|
|
100000000000000000000000100000000000000000000000,
|
|
300000000000300000000000300000000000300000000000,
|
|
300000000000000000000000300000000000000000000000,
|
|
400000000000400000000000400000000000400000000000,
|
|
400000000000000000000000400000000000000000000000,
|
|
300000000000300000000000300000000000300000000000,
|
|
300000000000000000000000300000000000000000000000,
|
|
400000000000400000000000400000000000400000000000,
|
|
400000000000000000000000600000000000000000000000,
|
|
000000000000000000000000800000000000000000000000,
|
|
#GOGOEND
|
|
|
|
|
|
#END
|
|
|
|
|
|
COURSE:Easy
|
|
LEVEL:3
|
|
BALLOON:4
|
|
SCOREINIT:1150
|
|
SCOREDIFF:530
|
|
|
|
|
|
#START
|
|
|
|
|
|
300000000000000000000000000000000000000000000000,
|
|
300000000000000000000000000000000000300000000000,
|
|
000000000000000000000000000000000000000000000000,
|
|
000000000000000000000000000000000000000000000000,
|
|
300000000000000000000000000000000000000000000000,
|
|
300000000000000000000000000000000000300000000000,
|
|
000000000000000000000000000000000000000000000000,
|
|
500000000000000000000000800000000000000000000000,
|
|
100000000000000000000000000000000000000000000000,
|
|
100000000000000000000000000000000000000000000000,
|
|
100000000000000000000000100000000000000000000000,
|
|
700000000000000000800000000000000000000000000000,
|
|
500000000000000000000000000000000000000000000000,
|
|
000000000000000000800000000000000000000000000000,
|
|
600000000000000000000000000000000000000000000000,
|
|
000000000000000000000000800000000000000000000000,
|
|
100000000000000000000000100000000000000000000000,
|
|
400000000000000000000000000000000000000000000000,
|
|
100000000000000000000000000000000000000000000000,
|
|
100000000000000000000000100000000000000000000000,
|
|
500000000000000000000000800000000000000000000000,
|
|
100000000000100000000000100000000000000000000000,
|
|
100000000000000000000000000000000000000000000000,
|
|
100000000000000000000000100000000000000000000000,
|
|
500000000000000000000000800000000000000000000000,
|
|
100000000000100000000000100000000000000000000000,
|
|
100000000000000000000000100000000000000000000000,
|
|
100000000000000000000000000000000000000000000000,
|
|
200000000000000000000000200000000000000000000000,
|
|
200000000000000000000000000000000000000000000000,
|
|
100000000000000000000000200000000000000000000000,
|
|
100000000000000000000000000000000000000000000000,
|
|
100000000000000000000000100000000000000000000000,
|
|
300000000000000000000000600000000000000000000000,
|
|
000000000000800000000000000000000000000000000000,
|
|
#GOGOSTART
|
|
100000000000000000000000000000000000000000000000,
|
|
100000000000000000000000100000000000000000000000,
|
|
100000000000000000000000000000000000000000000000,
|
|
100000000000100000000000100000000000000000000000,
|
|
200000000000000000000000000000000000000000000000,
|
|
200000000000000000000000200000000000000000000000,
|
|
200000000000000000000000000000000000000000000000,
|
|
200000000000200000000000200000000000000000000000,
|
|
300000000000000000000000300000000000000000000000,
|
|
300000000000000000000000300000000000000000000000,
|
|
400000000000000000000000400000000000000000000000,
|
|
400000000000000000000000400000000000000000000000,
|
|
300000000000000000000000300000000000000000000000,
|
|
300000000000000000000000300000000000000000000000,
|
|
400000000000000000000000400000000000000000000000,
|
|
400000000000000000000000600000000000000000000000,
|
|
000000000000000000000000800000000000000000000000,
|
|
#GOGOEND
|
|
|
|
|
|
#END
|
|
|