forked from ESE/ESE
313 lines
12 KiB
Plaintext
313 lines
12 KiB
Plaintext
//TJADB Project
|
|
TITLE:Tsukema Tsukeru
|
|
TITLEJA:つけまつける
|
|
SUBTITLE:--Kyary Pamyu Pamyu
|
|
SUBTITLEJA:きゃりーぱみゅぱみゅ
|
|
BPM:145
|
|
WAVE:Tsukema Tsukeru.ogg
|
|
OFFSET:-5.265
|
|
DEMOSTART:71.455
|
|
|
|
COURSE:Oni
|
|
LEVEL:6
|
|
BALLOON:4
|
|
SCOREINIT:700
|
|
SCOREDIFF:190
|
|
|
|
|
|
#START
|
|
|
|
|
|
#GOGOSTART
|
|
300000000000200000200000100000000000200000200000,
|
|
100000200000100000200000100000000000000000000000,
|
|
100000100000200000200000100000000000200000200000,
|
|
100000000000400000000000400000000000000000000000,
|
|
100000000000200000200000100000000000200000200000,
|
|
100000200000100000200000100000000000000000000000,
|
|
100000100000200000200000100000000000200000200000,
|
|
300000000000300000000000700000000000800000000000,
|
|
|
|
#GOGOEND
|
|
100000000000200000200000100000000000200000200000,
|
|
100000200200200000200000100000000000000000000000,
|
|
100000100000200000200000100000200200200000200000,
|
|
100000000000200000000000200000000000000000000000,
|
|
100000000000200000200000100000000000200000200000,
|
|
100000200200200000200000100000000000000000000000,
|
|
100000100000200000200000100000200200200000200000,
|
|
100000000000200000000000100000200000200000200000,
|
|
100000000000200000000000100000100000200000000000,
|
|
100000100100200000100000200000000000000000000000,
|
|
100000000000200000200000100000000000200000200000,
|
|
100000200200100000200000100000000000000000000000,
|
|
100000000000200000000000100000100000200000000000,
|
|
100000100100200000100000200000000000000000000000,
|
|
100000000000200000000000100000000000200000000000,
|
|
100000200200100000200000100000000000100000100000,
|
|
100000200000100000200000100000200200100000200000,
|
|
100000200200100000200000100000000000000000000000,
|
|
100000200000100000200000100000200200100000200000,
|
|
100000200200100000200000200000000000000000000000,
|
|
100000200000100000200000100000200200100000200000,
|
|
100000200200100000200000100000000000000000000000,
|
|
100000200000100000200000100000200200100000200000,
|
|
100000200200100000200000200000000000100000100000,
|
|
100000000000200000100000000000000000200000000000,
|
|
100000000000200000100000000000100100200000000000,
|
|
100000000000200000100000000000000000200000000000,
|
|
100000000000200000100000000000100100200000000000,
|
|
100000000000200000100000000000000000200000000000,
|
|
100000000000200000100000000000100000200000500000,
|
|
000000000000000008000000100000200000200000500000,
|
|
000000000000000000000008000000300000300000300000,
|
|
|
|
#GOGOSTART
|
|
300000200200100000200000100000200200100000200000,
|
|
100000200200100000200200100000200000200000000000,
|
|
100000100000200000200000100000100100200000200000,
|
|
300000000000300000000000300000200200200000000000,
|
|
100000200200100000200000100000200200100000200000,
|
|
100000200200100000200200100000200000200000000000,
|
|
100000100000200000200000100000100100200000200000,
|
|
300000000000300000000000300000200200200000000000,
|
|
100000000000200000000000100000000000200000000000,
|
|
100000200200100000200000100000000000000000000000,
|
|
100000000000200000000000100000000000200000000000,
|
|
100000200200100000200000100000000000000000000000,
|
|
100000200200100000200000100000200200100000200000,
|
|
100000200200100000200200100000200000200000000000,
|
|
100000100000200000200000100000200200100000200000,
|
|
300000000000300000000000300000000000400000000000,
|
|
|
|
#GOGOEND
|
|
|
|
|
|
#END
|
|
|
|
|
|
COURSE:Hard
|
|
LEVEL:3
|
|
BALLOON:3,8
|
|
SCOREINIT:670
|
|
SCOREDIFF:330
|
|
|
|
|
|
#START
|
|
|
|
|
|
#GOGOSTART
|
|
300000000000100000100000200000000000200000200000,
|
|
100000000000100000100000100000000000000000000000,
|
|
100000000000100000100000200000000000200000200000,
|
|
100000000000300000000000300000000000000000000000,
|
|
100000000000100000100000200000000000200000200000,
|
|
100000000000100000100000100000000000000000000000,
|
|
100000000000100000100000200000000000200000200000,
|
|
100000000000300000000000700000000800000000000000,
|
|
#GOGOEND
|
|
100000000000100000100000200000000000200000200000,
|
|
100000100000100000100000100000000000000000000000,
|
|
100000100000100000100000200000000000200000200000,
|
|
100000000000100000000000100000000000000000000000,
|
|
100000000000100000100000200000000000200000200000,
|
|
100000100000100000100000100000000000000000000000,
|
|
100000100000100000100000200000000000200000200000,
|
|
100000100000200000200000200000000000000000000000,
|
|
100000000000200000000000100000000000200000000000,
|
|
100000100000200000200000100000000000000000000000,
|
|
100000000000200000000000100000000000200000000000,
|
|
100000200000100000200000100000000000000000000000,
|
|
100000000000200000000000100000000000200000000000,
|
|
100000100000200000200000100000000000000000000000,
|
|
100000000000200000000000100000000000200000000000,
|
|
100000200000100000200000100000000000000000000000,
|
|
100000000000200000000000100000000000200000000000,
|
|
100000200000100000200000100000000000200000000000,
|
|
100000000000200000200000100000000000200000200000,
|
|
100000200000100000200000100000000000200000000000,
|
|
100000000000200000000000100000000000200000000000,
|
|
100000200000100000200000100000000000200000000000,
|
|
100000000000200000200000100000000000200000200000,
|
|
100000200000100000200000100000000000200000000000,
|
|
100000000000200000100000000000000000200000000000,
|
|
100000000000200000100000000000000000200000000000,
|
|
100000000000200000100000000000000000200000000000,
|
|
100000000000200000100000000000200000200000000000,
|
|
100000000000200000100000000000000000200000000000,
|
|
100000000000200000100000000000100000100000500000,
|
|
000000000000000080000000000000200000200000700000,
|
|
000000000000000000800000000000000000000000000000,
|
|
#GOGOSTART
|
|
300000000000200000200000100000000000200000200000,
|
|
100000200000100000200000100000000000200000000000,
|
|
100000100000200000200000100000000000200000200000,
|
|
100000000000400000000000400000000000000000000000,
|
|
100000000000200000200000100000000000200000200000,
|
|
100000200000100000200000100000000000000000000000,
|
|
100000100000200000200000100000000000200000200000,
|
|
100000000000200000200000100000000000200000000000,
|
|
100000000000200000000000100000000000200000000000,
|
|
100000200000100000200000100000000000200000000000,
|
|
100000000000200000000000100000000000200000000000,
|
|
100000200000100000200000100000000000200000000000,
|
|
100000000000200000200000100000000000200000200000,
|
|
100000200000100000200000100000000000200000000000,
|
|
100000100000200000200000100000000000200000200000,
|
|
100000000000300000000000300000000000400000000000,
|
|
#GOGOEND
|
|
|
|
|
|
#END
|
|
|
|
|
|
COURSE:Normal
|
|
LEVEL:4
|
|
BALLOON:5
|
|
SCOREINIT:740
|
|
SCOREDIFF:220
|
|
|
|
|
|
#START
|
|
|
|
|
|
#GOGOSTART
|
|
300000000000100000100000100000000000000000000000,
|
|
100000100000100000000000100000000000000000000000,
|
|
100000000000100000100000100000000000000000000000,
|
|
300000000000300000000000300000000000000000000000,
|
|
100000000000100000100000100000000000000000000000,
|
|
100000100000100000000000100000000000000000000000,
|
|
100000000000100000100000100000000000000000000000,
|
|
300000000000300000000000300000000000000000000000,
|
|
#GOGOEND
|
|
100000000000000000000000100000000000000000000000,
|
|
100000000000100000000000100000000000000000000000,
|
|
100000000000000000000000100000000000000000000000,
|
|
100000000000100000000000100000000000000000000000,
|
|
100000000000000000000000100000000000000000000000,
|
|
100000000000100000000000100000000000000000000000,
|
|
100000000000000000000000100000000000000000000000,
|
|
100000000000100000000000100000000000000000000000,
|
|
100000000000200000000000100000000000200000000000,
|
|
100000000000100000000000100000000000000000000000,
|
|
100000000000200000000000100000000000200000000000,
|
|
500000000000000000000000000080000000000000000000,
|
|
100000000000200000000000100000000000200000000000,
|
|
100000000000100000000000100000000000000000000000,
|
|
100000000000200000000000100000000000200000000000,
|
|
500000000000000000000000000080000000000000000000,
|
|
100000000000200000000000100000000000200000000000,
|
|
100000000000100000100000100000000000000000000000,
|
|
100000000000200000000000100000000000200000000000,
|
|
100000100000100000000000100000000000000000000000,
|
|
100000000000200000000000100000000000200000000000,
|
|
100000000000100000100000100000000000000000000000,
|
|
100000000000200000000000100000000000200000000000,
|
|
100000100000100000000000100000000000000000000000,
|
|
100000000000000000000000200000000000000000000000,
|
|
100000000000000000000000200000000000000000000000,
|
|
100000000000000000000000200000000000000000000000,
|
|
100000000000100000000000200000000000000000000000,
|
|
100000000000000000000000200000000000000000000000,
|
|
100000000000100000000000200000000000000000500000,
|
|
000000000000000080000000000000000000000000700000,
|
|
000000000000000000800000000000000000000000000000,
|
|
#GOGOSTART
|
|
100000000000100000100000100000000000100000100000,
|
|
100000000000300000000000300000000000000000000000,
|
|
100000100000100000000000100000000000100000100000,
|
|
100000000000300000000000300000000000000000000000,
|
|
100000000000100000100000100000000000100000100000,
|
|
100000000000300000000000300000000000000000000000,
|
|
100000100000100000000000100000000000100000100000,
|
|
100000000000300000000000300000000000000000000000,
|
|
100000000000200000000000100000000000200000000000,
|
|
100000000000100000100000100000000000000000000000,
|
|
100000000000200000000000100000000000200000000000,
|
|
100000100000100000100000100000000000000000000000,
|
|
100000000000100000100000100000000000100000100000,
|
|
100000000000100000000000100000000000000000000000,
|
|
100000100000100000000000100000000000100000100000,
|
|
100000000000300000000000300000000000400000000000,
|
|
#GOGOEND
|
|
|
|
|
|
#END
|
|
|
|
|
|
COURSE:Easy
|
|
LEVEL:3
|
|
BALLOON:4
|
|
SCOREINIT:730
|
|
SCOREDIFF:250
|
|
|
|
|
|
#START
|
|
|
|
|
|
#GOGOSTART
|
|
300000000000000000000000100000000000000000000000,
|
|
100000000000100000000000100000000000000000000000,
|
|
100000000000000000000000100000000000000000000000,
|
|
100000000000100000000000100000000000000000000000,
|
|
100000000000000000000000100000000000000000000000,
|
|
100000000000100000000000100000000000000000000000,
|
|
100000000000000000000000100000000000000000000000,
|
|
300000000000300000000000300000000000000000000000,
|
|
#GOGOEND
|
|
100000000000000000000000000000000000000000000000,
|
|
100000000000100000000000100000000000000000000000,
|
|
100000000000000000000000000000000000000000000000,
|
|
100000000000100000000000100000000000000000000000,
|
|
100000000000000000000000000000000000000000000000,
|
|
100000000000100000000000100000000000000000000000,
|
|
100000000000000000000000000000000000000000000000,
|
|
100000000000100000000000100000000000000000000000,
|
|
100000000000000000000000100000000000000000000000,
|
|
100000000000000000000000000000000000000000000000,
|
|
200000000000000000000000200000000000000000000000,
|
|
500000000000000000000000000080000000000000000000,
|
|
100000000000000000000000100000000000000000000000,
|
|
100000000000000000000000000000000000000000000000,
|
|
200000000000000000000000200000000000000000000000,
|
|
500000000000000000000000000080000000000000000000,
|
|
100000000000000000000000100000000000000000000000,
|
|
200000000000000000000000200000000000000000000000,
|
|
100000000000000000000000100000000000000000000000,
|
|
200000000000000000000000200000000000000000000000,
|
|
100000000000000000000000100000000000000000000000,
|
|
200000000000000000000000200000000000000000000000,
|
|
100000000000000000000000100000000000000000000000,
|
|
200000000000000000000000200000000000000000000000,
|
|
100000000000000000000000000000000000000000000000,
|
|
100000000000000000000000000000000000000000000000,
|
|
100000000000000000000000200000000000000000000000,
|
|
100000000000000000000000000000000000000000000000,
|
|
100000000000000000000000000000000000000000000000,
|
|
100000000000000000000000200000000000000000500000,
|
|
000000000000000000000080000000000000000000700000,
|
|
000000000000000000800000000000000000000000000000,
|
|
#GOGOSTART
|
|
100000000000000000000000100000000000000000000000,
|
|
300000000000300000000000300000000000000000000000,
|
|
200000000000000000000000200000000000000000000000,
|
|
400000000000400000000000400000000000000000000000,
|
|
100000000000000000000000100000000000000000000000,
|
|
300000000000300000000000300000000000000000000000,
|
|
200000000000000000000000200000000000000000000000,
|
|
400000000000400000000000400000000000000000000000,
|
|
100000000000100000000000100000000000100000000000,
|
|
100000000000000000000000100000000000000000000000,
|
|
200000000000200000000000200000000000200000000000,
|
|
200000000000000000000000200000000000000000000000,
|
|
100000000000100000000000100000000000000000000000,
|
|
100000000000100000000000100000000000000000000000,
|
|
200000000000200000000000200000000000000000000000,
|
|
300000000000300000000000300000000000400000000000,
|
|
#GOGOEND
|
|
|
|
|
|
#END
|
|
|