forked from ESE/ESE
297 lines
4.1 KiB
Plaintext
297 lines
4.1 KiB
Plaintext
//TJADB Project
|
|
TITLE:Tsukiiro Chainon
|
|
TITLEJA:月色Chainon
|
|
SUBTITLE:--Momoiro Clover Z/Sailor Moon Eternal
|
|
SUBTITLEJA:ももいろクローバーZ 劇場版「美少女戦士セーラームーンEternal」より
|
|
BPM:128
|
|
WAVE:Tsukiiro Chainon.ogg
|
|
OFFSET:-7.886
|
|
DEMOSTART:60.345
|
|
|
|
COURSE:Oni
|
|
LEVEL:7
|
|
BALLOON:8,6,3,3,16,8
|
|
SCOREINIT:740
|
|
SCOREDIFF:188
|
|
|
|
|
|
|
|
#START
|
|
|
|
|
|
1011011020000000,
|
|
2011011020000010,
|
|
1011011020002011,
|
|
1011111022020110,
|
|
1200100210201022,
|
|
1022102010001000,
|
|
1200100210201022,
|
|
1022102010001000,
|
|
1200100210201022,
|
|
1002102210201020,
|
|
1200102210001022,
|
|
1022102010021022,
|
|
1200200210102022,
|
|
1021201010002022,
|
|
1200200210102010,
|
|
1202202010002022,
|
|
1202202210012110,
|
|
1202202210012022,
|
|
1220202212022020,
|
|
3000300030221110,
|
|
500000000000000008000000700000000000000000800000,
|
|
0010212070008000,
|
|
78278270,
|
|
08,
|
|
500000000000000008000000700000000000000000800000,
|
|
0010212020202010,
|
|
1010101201011010,
|
|
2210400022022022,
|
|
|
|
#GOGOSTART
|
|
1001201220102010,
|
|
1021001000102000,
|
|
1001201220102010,
|
|
1021001000102020,
|
|
1021201020122010,
|
|
1021201020122000,
|
|
1021201020102020,
|
|
1022111022021022,
|
|
1001201220102010,
|
|
1021001000102000,
|
|
1001201220102010,
|
|
1021001000102020,
|
|
3021203000102020,
|
|
2211103000102000,
|
|
1021201000102020,
|
|
1020120020022220,
|
|
|
|
#GOGOEND
|
|
1001201000102010,
|
|
1001201010102010,
|
|
1001201010102010,
|
|
1001201220102010,
|
|
1001201010102010,
|
|
1001201000102010,
|
|
2211221122112211,
|
|
1020120020122110,
|
|
4,
|
|
|
|
|
|
#END
|
|
|
|
|
|
COURSE:Hard
|
|
LEVEL:6
|
|
BALLOON:6,4,6
|
|
SCOREINIT:740
|
|
SCOREDIFF:210
|
|
|
|
|
|
#START
|
|
|
|
|
|
1011011020000000,
|
|
0011011020000000,
|
|
1011011020000000,
|
|
1010111020000000,
|
|
1000100010201011,
|
|
12021000,
|
|
1000100010201011,
|
|
12021000,
|
|
1000100110201000,
|
|
1000100110201020,
|
|
1000102010000011,
|
|
1011102010001000,
|
|
10201121,
|
|
02011020,
|
|
10201121,
|
|
00221020,
|
|
1002201000022010,
|
|
1002201000022010,
|
|
1020202202022020,
|
|
3333,
|
|
500000000000000008000000700000000000000000800000,
|
|
01227080,
|
|
10210250,
|
|
000000000000000000000008000000000000000000000000,
|
|
500000000000000008000000700000000000000000800000,
|
|
01222220,
|
|
1010101101011010,
|
|
0000400022022020,
|
|
|
|
#GOGOSTART
|
|
1002201110102000,
|
|
12010120,
|
|
1002201110102010,
|
|
02010022,
|
|
1022201020111000,
|
|
1022201020111000,
|
|
1022201020102000,
|
|
1000111022020020,
|
|
1002201110102000,
|
|
12010120,
|
|
1002201110102010,
|
|
1002001000102020,
|
|
3022203000102020,
|
|
2011103000102000,
|
|
1022201000102020,
|
|
0020220020022220,
|
|
|
|
#GOGOEND
|
|
1002201000102000,
|
|
1002201010102000,
|
|
1002201010102000,
|
|
1002201110102000,
|
|
1002201010102000,
|
|
1002201000102000,
|
|
21212121,
|
|
1020020020011010,
|
|
4,
|
|
|
|
|
|
#END
|
|
|
|
|
|
COURSE:Normal
|
|
LEVEL:4
|
|
BALLOON:4,4,9
|
|
SCOREINIT:920
|
|
SCOREDIFF:325
|
|
|
|
|
|
#START
|
|
|
|
|
|
11002000,
|
|
01002000,
|
|
11002020,
|
|
10110000,
|
|
10101011,
|
|
02020000,
|
|
10101011,
|
|
02020000,
|
|
10102200,
|
|
10102200,
|
|
10011001,
|
|
01102020,
|
|
10201011,
|
|
02011000,
|
|
10201011,
|
|
00220020,
|
|
10220020,
|
|
10220020,
|
|
10220020,
|
|
3033,
|
|
500000000000000008000000700000000000000000800000,
|
|
02202000,
|
|
10110050,
|
|
000000000000000000000008000000000000000000000000,
|
|
500000000000000008000000700000000000000000800000,
|
|
02202020,
|
|
10110010,
|
|
0400,
|
|
|
|
#GOGOSTART
|
|
10201011,
|
|
10010110,
|
|
10201011,
|
|
10010010,
|
|
11102000,
|
|
11102000,
|
|
10011020,
|
|
1120,
|
|
10201011,
|
|
10010110,
|
|
10201011,
|
|
10020020,
|
|
30030020,
|
|
22030020,
|
|
10110222,
|
|
000000500000000000000000000000000008000000000000,
|
|
|
|
#GOGOEND
|
|
10010220,
|
|
10010220,
|
|
1211,
|
|
10011020,
|
|
10010220,
|
|
10010220,
|
|
1222,
|
|
900000000000000000000000000000000000000000000008,
|
|
|
|
|
|
#END
|
|
|
|
|
|
COURSE:Easy
|
|
LEVEL:3
|
|
BALLOON:7
|
|
SCOREINIT:880
|
|
SCOREDIFF:473
|
|
|
|
|
|
#START
|
|
|
|
|
|
12,
|
|
12,
|
|
12,
|
|
1100,
|
|
1110,
|
|
02020000,
|
|
1110,
|
|
02020000,
|
|
1110,
|
|
2220,
|
|
11,
|
|
1110,
|
|
1110,
|
|
02020000,
|
|
1110,
|
|
20020000,
|
|
10010000,
|
|
10010000,
|
|
10010010,
|
|
3033,
|
|
500000000000000000000000000000000000000000000008,
|
|
02,
|
|
10010050,
|
|
000000000000000000000008000000000000000000000000,
|
|
500000000000000000000000000000000000000000000008,
|
|
02,
|
|
1111,
|
|
0400,
|
|
|
|
#GOGOSTART
|
|
1110,
|
|
20020000,
|
|
1110,
|
|
02020000,
|
|
11,
|
|
11,
|
|
1111,
|
|
12,
|
|
1110,
|
|
20020000,
|
|
1110,
|
|
20020000,
|
|
30030000,
|
|
10030000,
|
|
10010005,
|
|
000000000000000000000000000008000000000000000000,
|
|
|
|
#GOGOEND
|
|
10010010,
|
|
10010010,
|
|
11,
|
|
12,
|
|
10010010,
|
|
10010010,
|
|
1110,
|
|
900000000000000000000000000000000000000000000008,
|
|
|
|
|
|
#END
|
|
|