Files
2023-06-15 19:15:39 -05:00

637 lines
9.2 KiB
Plaintext

//TJADB Project
TITLE:Tubthumping
TITLEJA:ALRIGHT*
SUBTITLE:--Chumbawamba
BPM:103.9
WAVE:Tubthumping.ogg
OFFSET:-5.054
DEMOSTART:8.758
COURSE:Oni
LEVEL:6
#START
000000000000000000000000000000000000000000000000,
000000000000
#BPMCHANGE 103.5
000000000000
#BPMCHANGE 108.3
000000300000
#BPMCHANGE 103
300000300000,
#BPMCHANGE 103.9
300000100000200000100010100000100000200000000000,
100010100010100000100020000000300000300000300000,
300000100000200000100010100000100000200000000000,
100010100010100000200020000000300000300000300000,
300000100000200000100010100000100000200000000000,
100010100010100000100020000000300000300000300000,
300000100000200000100010100000100000200000000000,
100010100010100000200020000000000000000000000000,
100000000000200000000000100000100000200000000000,
100000000000200000000000100000100000200000000000,
100000000000200000000000100000100000200000000000,
100000000000200000000000100000100000200000000000,
100010100000200000200000100010100000200000000000,
100010100000200000200000100010100000200000000000,
100010100000200010100000100010100000200000000000,
200010100000200010100000200010100000400000000000,
100000100000200000200010100000100000200000000000,
100000100000200000100010100000100000200000000000,
100000100000200000200010100000100000200000000000,
500000000000000000000008000000300000300000300000,
300000100000200000100010100010100000200000000000,
100010200010200000100020000000300000300000300000,
300000100000200000100010100010100000200000000000,
100010200010200000200020000000300000300000300000,
300000100000200000100010200020100000200000000000,
100010200010200000100020000000300000300000300000,
300000100000200000100010200020100000200000000000,
100010200010200000100020100000100000200020200000,
100000000000200000000000100000100000200000000000,
100000000000200000000000100000200000200000000000,
100000000000200000000000100000100000200000000000,
100000000000200000000000100000200000200000000000,
100010100000200000200000100010100000200020200000,
100010100000200000200000100010100000200020200000,
100010100000200020200000100010100000200020200000,
100020100000100020100000100020100000400000000000,
100000100000200000200010100000100020200000000000,
100000100000200000100010100000100020200000000000,
100000100000200000200010100000100020200000000000,
500000000000000000000008000000300000300000300000,
300000100000200000100010100010100020200000000000,
100010200010200010200010000000300000300000300000,
300000100000200000100010100010100020200000000000,
100010200010200010200020000000300000300000300000,
300000100000200000100010200020100020200000000000,
100010200010200010200010000000300000300000300000,
300000100000200000100010200020100020200000000000,
100010200010200010200020000000000000000000000000,
#END
COURSE:Hard
LEVEL:5
STYLE:Double
SCOREINIT:830
SCOREDIFF:200
#START P1
,
00000333,
30101120,
101100100102000000400000,
40221020,
101100100102000300300300,
30201120,
101100100102000000400000,
40221020,
101100100102000000000000,
12020202,
12020202,
10001120,
10001120,
101100000000101100000000,
000000002200000000002200,
101100200200101100200200,
101100200200101100300000,
1258,
11205080,
10201120,
5084,
40221020,
101200100102000300300300,
30201120,
101200100102000000400000,
400000101100200000200000,
101200100102000300300300,
300000200000101100200000,
101200100102000000000000,
1022,
10001110,
1122,
10101110,
101100000000101100000000,
000000202200000000202200,
200200101100200200101100,
200100101200200100300000,
500000800000100102200000,
100100200000100102200000,
100100200000100102200000,
50008333,
30201120,
101200100102000000400000,
40221020,
101200100102000300300300,
300000200000101100200000,
101200100102000000400000,
400000101100200000200000,
101200100102000000000000,
#END
#START P2
,
00000333,
30201120,
101100100102000300300300,
30201120,
101100100102000300300300,
30201120,
101100100102000300300300,
30201120,
101100100102000000000000,
10001120,
10001120,
10001120,
10001120,
101100000000101100000000,
101100000000101100000000,
101100101100101100100100,
101100101100101100300000,
10201120,
10201120,
10201120,
500000000000000000000008000000300000300000300000,
30401120,
101200100102000300300300,
30201120,
101200100102000300300300,
300000200000101100200000,
101200100102000300300300,
300000200000101100200000,
101200100102000000000000,
1012,
10001220,
1112,
10101220,
101100000200101100000200,
101100000200101100200200,
101100101100101100101100,
101200101200101200400000,
100100200000100102200000,
100100200000100102200000,
100100200000100102200000,
50008333,
30201120,
101200100102000300300300,
30201120,
101200100102000300300300,
300000200000101100200000,
101200100102000300300300,
300000200000101100200000,
101200100102000000000000,
#END
STYLE:Single
SCOREINIT:750
SCOREDIFF:180
#START
,
00000333,
30201120,
101100100102000300300300,
30201120,
101100100102000300300300,
30201120,
101100100102000300300300,
30201120,
101100100102000000000000,
10001120,
10001120,
10001120,
10001120,
101100000000101100000000,
101100000000101100000000,
101100101100101100100100,
101100101100101100300000,
10201120,
10201120,
10201120,
500000000000000000000008000000300000300000300000,
30401120,
101200100102000300300300,
30201120,
101200100102000300300300,
300000200000101100200000,
101200100102000300300300,
300000200000101100200000,
101200100102000000000000,
1012,
10001220,
1112,
10101220,
101100000200101100000200,
101100000200101100200200,
101100101100101100101100,
101200101200101200400000,
100100200000100102200000,
100100200000100102200000,
100100200000100102200000,
50008333,
30201120,
101200100102000300300300,
30201120,
101200100102000300300300,
300000200000101100200000,
101200100102000300300300,
300000200000101100200000,
101200100102000000000000,
#END
COURSE:Normal
LEVEL:2
STYLE:Double
SCOREINIT:830
SCOREDIFF:220
#START P1
,
00000333,
10201120,
1104,
4111,
12120333,
10201120,
1104,
4111,
12120000,
10001110,
10001110,
0202,
0202,
11001100,
11001100,
11111100,
11111130,
10201120,
5080,
10201120,
5084,
4111,
12120333,
30201120,
10100040,
4111,
12120333,
30201120,
1100,
20002220,
20002220,
0101,
0101,
000000002200000000002200,
000000002200000000002200,
002200002200002200002200,
002200002200002200000000,
5080,
11202220,
11202220,
50008333,
30201120,
1104,
4111,
12120333,
30201120,
1104,
4111,
12120000,
#END
#START P2
,
0004,
4111,
12120333,
30201120,
1104,
4111,
12120333,
30201120,
1100,
0202,
0202,
10001110,
10001110,
000000002200000000002200,
000000002200000000002200,
002200002200002200002200,
002200002200002200000000,
5080,
10201120,
10201120,
50008333,
30201120,
1104,
4111,
12120333,
30201120,
1104,
4111,
12120000,
0101,
0101,
20002220,
20002220,
11001100,
11001100,
11111100,
11111130,
11202220,
5080,
11202220,
5084,
4111,
12120333,
30201120,
1104,
4111,
12120333,
30201120,
1100,
#END
STYLE:Single
SCOREINIT:660
SCOREDIFF:160
#START
,
00000333,
30201120,
12120333,
30201120,
12120333,
30201120,
12120333,
30201120,
12120000,
10001120,
10001120,
10001120,
10001120,
11001100,
11001100,
11111100,
11111130,
10201120,
10201120,
10201120,
500000000000000000000008000000300000300000300000,
30201120,
12120333,
30201120,
12120333,
30201120,
12120333,
30201120,
12120000,
10002220,
10002220,
10102220,
10102220,
11021102,
11021102,
11111100,
12121240,
11202220,
11202220,
11202220,
500000000000000000000008000000300000300000300000,
30201120,
12120333,
30201120,
12120333,
30201120,
12120333,
30201120,
12120000,
#END
COURSE:Easy
LEVEL:2
STYLE:Double
SCOREINIT:1080
SCOREDIFF:380
#START P1
,
0003,
3022,
1110,
1110,
1103,
3022,
1110,
1110,
1100,
11,
11,
0202,
0200,
11000000,
11000000,
11100000,
11100000,
5080,
1110,
1110,
5080,
1110,
1103,
3022,
1110,
1110,
1103,
3022,
1110,
10001110,
10001110,
0202,
1202,
00001100,
00001100,
00001110,
00001110,
1110,
5080,
1110,
5083,
3022,
1110,
1110,
1103,
3022,
1110,
1110,
1100,
3,
#END
#START P2
,
,
1110,
1103,
3022,
1110,
1110,
1103,
3022,
1110,
0202,
0200,
11,
11,
00001100,
00001100,
00001110,
00001110,
1110,
5080,
111,
5083,
3022,
1110,
1110,
1100,
0202,
1202,
10001110,
10001110,
11000000,
11000000,
11100000,
11100000,
5080,
1110,
1110,
5080,
1110,
1103,
3022,
1110,
1110,
1103,
3022,
1110,
3,
#END
STYLE:Single
SCOREINIT:870
SCOREDIFF:260
#START
,
0003,
30002200,
10110030,
30002200,
10110030,
30002200,
10110030,
30002200,
10110000,
1210,
1210,
1210,
1210,
11001100,
11001100,
11101000,
11101000,
12,
12,
12,
500000000000000000000008000000000000300000000000,
30002200,
10110030,
30002200,
10110030,
30002200,
10110030,
30002200,
10110000,
10001110,
12,
10001110,
12,
11001100,
11001100,
11101000,
11101000,
1120,
1120,
1120,
500000000000000000000008000000000000300000000000,
30002200,
10110030,
30002200,
10110030,
30002200,
10110030,
30002200,
10110000,
#END