Files
2023-06-15 19:15:39 -05:00

314 lines
3.7 KiB
Plaintext

//TJADB Project
TITLE:U.S.A.
TITLEJA:U.S.A.
SUBTITLE:--DA PUMP
BPM:139.6
WAVE:U.S.A..ogg
OFFSET:-3.603
DEMOSTART:65.439
COURSE:Oni
LEVEL:6
SCOREINIT:600
SCOREDIFF:140
#START
1000100022202000,
1010001002202020,
1000100022202000,
1010002011111000,
1010110100202020,
1010110100202020,
1102201102201020,
3344,
1010220100202020,
1010220100202020,
1102201102201020,
3344,
10101021,
1010200011102010,
1010200011102010,
12211221,
10101021,
1010200011102010,
1010200011102010,
12211221,
3000300030222010,
1010200011102010,
1010200011102010,
1020201010222010,
3000300030222010,
1010200011102010,
1010200011102010,
1020201010222010,
1022200010222010,
1001001000202010,
1022200010222000,
500000000000000000000008000000000000000000000000,
1022201010222010,
12210221,
1022201010222010,
1020102010222220,
#GOGOSTART
3344,
3030404000222010,
02211221,
1110222011102220,
3344,
3030404000222010,
0022201010002000,
500000000000000000000000000008000000000000000000,
3344,
3040403000222010,
02211221,
1110222011102220,
3344,
3040403000222010,
0022201010002000,
500000000000000000000000000008000000000000000000,
#GOGOEND
1010110100202020,
1010110100202020,
1102201102201020,
3344,
1010220100202020,
1010220100202020,
1102201102201020,
3344,
3,
#END
COURSE:Hard
LEVEL:5
SCOREINIT:680
SCOREDIFF:200
#START
10101110,
22020000,
10101110,
22020000,
10100220,
10100220,
500000000000000000000000000008000000000000000000,
3344,
11100220,
11100220,
500000000000000000000000000008000000000000000000,
3344,
1110,
10201120,
10201120,
10221120,
1110,
10201120,
10201120,
10221120,
3330,
10201120,
11201120,
11221120,
3330,
10201120,
11201120,
11221120,
1212,
1001001000202000,
1212,
500000000000000000000008000000000000000000000000,
1212,
11110220,
1212,
500000000000000000000008000000000000000000000000,//36
#GOGOSTART
3333,
3000000010222000,
12201220,
2220200022202000,
3333,
3000000010222000,
12211020,
500000000000000000000000000008000000000000000000,
3344,
3000000010222000,
12201220,
2220200022202000,
3344,
3000000010222000,
12211020,
500000000000000000000000000008000000000000000000,//52
#GOGOEND
10100220,
10100220,
1102,
3344,
10200220,
10200220,
1202,
3344,
3,
,
,
,
#END
COURSE:Normal
LEVEL:3
#START
1110,
2,
1110,
2,
1102,
1102,
500000000000000000000000000008000000000000000000,
3334,
1102,
1102,
500000000000000000000000000008800000000000000000,
3334,
1110,
11,
2,
10101110,
1110,
11,
2,
20201110,
3330,
11,
2,
10101110,
3330,
11,
2,
20201110,
1212,
1002,
1212,
500000000000000000000008000000000000000000000000,
1212,
1002,
1212,
500000000000000000000008000000000000000000000000,//36
#GOGOSTART
3333,
3,
1110,
1212,
3333,
3,
1110,
500000000000000000000000000008000000000000000000,
3333,
3,
1110,
1212,
3333,
3,
1110,
500000000000000000000000000008000000000000000000,//52
#GOGOEND
1102,
1102,
1102,
3344,
1202,
1202,
1202,
3344,
3,
,
,
,
#END
COURSE:Easy
LEVEL:2
#START
11,
1,
11,
1,
1100,
1100,
500000000000000000000000000008000000000000000000,
3330,
1100,
1100,
500000000000000000000000000008000000000000000000,
3330,
1110,
11,
2,
,
1110,
11,
2,
,
3330,
11,
2,
,
3330,
11,
2,
,
11,
2,
11,
500000000000000000000008000000000000000000000000,
11,
2,
11,
500000000000000000000008000000000000000000000000,//36
#GOGOSTART
3333,
3,
11,
2,
3333,
3,
11,
500000000000000000000000000008000000000000000000,
3333,
3,
11,
2,
3333,
3,
11,
500000000000000000000000000008000000000000000000,//52
#GOGOEND
1100,
1100,
1100,
3333,
1100,
1100,
1100,
3333,
3,
,
,
,
#END