Files
2023-06-15 19:05:10 -05:00

236 lines
2.7 KiB
Plaintext

//TJADB Project
TITLE:Uma to Shika
TITLEJA:馬と鹿
SUBTITLE:--Kenshi Yonezu/No Side Game
SUBTITLEJA:米津玄師 / TBS系 日曜劇場「ノーサイド・ゲーム」主題歌
BPM:91
WAVE:Uma to Shika.ogg
OFFSET:-2.805
DEMOSTART:46.958
COURSE:Oni
LEVEL:5
BALLOON:40
SCOREINIT:1380
SCOREDIFF:453
#START
0010202110102020,
1020102010110000,
0010202110102010,
1000101010220000,
0010202110102020,
1020102010110000,
0010202110102010,
1110000020000000,
1010201120201022,
1110202011102010,
22222111,
100000200000100000500000000000000008000000100000,
3010002040200011,
21021201,
1010201110102015,
000000000000000000000008000000000000000000000000,
#BPMCHANGE 90.6
11113300,
#GOGOSTART
#BPMCHANGE 91
1000201110102020,
1000201110201020,
1000201110102020,
30201122,
1000201210102020,
1000201210102020,
10201122,
600000000000000000000000000000000008000000000000,
1022101120221011,
2022101120011010,
1011202210012010,
1011201170000000,
,
08,
#GOGOEND
#END
COURSE:Hard
LEVEL:3
BALLOON:32,32,32
SCOREINIT:1330
SCOREDIFF:330
#START
01221000,
1010100010110000,
01221000,
10111000,
01221000,
1010100010110000,
01221010,
1,
11002200,
11221100,
22202220,
22202001,
11022201,
21021201,
10201110,
1,
#BPMCHANGE 90.6
10101100,
#GOGOSTART
#BPMCHANGE 91
#SECTION
#BRANCHSTART p,70,85
#N
10201122,
10201212,
10201122,
30201022,
10201122,
10201122,
1012,
600000000000000000000000000000000008000000000000,
1212,
10201011,
1212,
1270,
#E
1000201110102020,
10211212,
1000201110102020,
30201022,
1000201110102020,
10201122,
10201122,
600000000000000000000000000000000008000000000000,
1000201110002000,
1000201110001010,
1000201110002000,
11227000,
#M
1000201110102020,
1000201110201020,
1000201110102020,
30201022,
1000201110102020,
1000201110102020,
10201122,
600000000000000000000000000000000008000000000000,
1011101110002000,
1011101110002020,
1011101110002000,
11227000,
#BRANCHEND
,
08,
#GOGOEND
#END
COURSE:Normal
LEVEL:1
BALLOON:26
#START
01,
1110,
01,
1110,
01,
1110,
0011,
1,
12,
1210,
2220,
2200,
11,
11,
1011,
1,
#BPMCHANGE 90.6
,//17
#BPMCHANGE 90.99995
#GOGOSTART
1012,
1012,
1012,
3,
1012,
1012,
11,
600000000000000000000000000000000008000000000000,
1212,
1210,
1212,
1270,
,
08,//31
#GOGOEND
,
#END
COURSE:Easy
LEVEL:1
BALLOON:20
#START
01,
11,
01,
11,
01,
11,
01,
1,
11,
1,
22,
2,
11,
11,
11,
1,
#BPMCHANGE 90.6
,//17
#BPMCHANGE 90.99995
#GOGOSTART
11,
1,
11,
3,
11,
1,
11,
600000000000000000000000000008000000000000000000,
11,
11,
11,
17,
,
08,//31
#GOGOEND
,
#END