Files
ESE-ja-fix/01 Pop/WE ARE THE CHAMP ~THE NAME OF THE GAME~/WE ARE THE CHAMP ~THE NAME OF THE GAME~.tja
2023-06-15 19:05:10 -05:00

315 lines
11 KiB
Plaintext
Raw Permalink Blame History

This file contains ambiguous Unicode characters
This file contains Unicode characters that might be confused with other characters. If you think that this is intentional, you can safely ignore this warning. Use the Escape button to reveal them.
//TJADB Project
TITLE:WE ARE THE CHAMP ~THE NAME OF THE GAME~
TITLEJA:WE ARE THE CHAMP
SUBTITLE:--THE WAVES -Olé, Olé, Olé Rendition-
BPM:123
WAVE:WE ARE THE CHAMP ~THE NAME OF THE GAME~.ogg
OFFSET:-2.328
DEMOSTART:25.737
COURSE:Oni
LEVEL:5
BALLOON:12,12
#START
#BARLINEOFF
,
,
5,
000000000008000000000000000000000000000000000000,
,
,
,
#MEASURE 5/4
,
#BARLINEON
#MEASURE 4/4
100000100100100000000000200000200000000000000000,
100000100100100000000000200000200000000000000000,
100000100100100000000000200000200000000000000000,
100000100100100000000000200000200000100000000000,
100000100100100000200000100000100000100000100000,
100000200200200000200000200000100000100000100000,
100000200200200000200000200000100000100000100000,
100000200200200000200000200000100000100000000000,
100000100100100000200000100000100000100000100000,
100000200200200000200000200000100000100000100000,
100000200200200000200000200000100000100000100000,
100000200200200000200000200000100000100000000000,
100000100100100000200000100000100000100000100000,
100000200200200000200000200000100000100000100000,
700000000000000000000000000000800000000000000000,
100000200000100000200000100100100000100000200000,
100100100100100000100000200000100000300000000000,
100000200000100000200000100100100000100000200000,
100100100100100000100000200000100000300000000000,
100000100100100000000000200000200000000000000000,
100000100100100000000000200000200000000000000000,
100000100100100000100000200000200000000000000000,
100000100100100000100000200000200000000000000000,
200200000000100000000000200200000000100000000000,
200200200200200200200200200000000000100000000000,
200200000000100000000000200200000000100000000000,
200200200200200200200200200000000000100000000000,
200200000000100000000000200200000000100000000000,
200200200200200200200200200000000000100000000000,
200200000000100000000000200200000000100000000000,
200200200200200200200200200000000000100000000000,
100000100100100000200000100000100000100000100000,
100000200200200000200000200000100000100000100000,
100000200200200000200000200000100000100000100000,
100000200200200000200000200000100000100000000000,
100000100100100000200000100000100000100000100000,
100000200200200000200000200000100000100000100000,
100000200200200000200000200000100000100000100000,
100000200200200000200000200000100000100000000000,
100000100100100000200000100000100000100000100000,
100000200200200000200000200000100000100000100000,
700000000000000000000000000000800000000000000000,
100000200000100000200000100100100000100000200000,
100100100100100000100000200000100000300000000000,
100000200000100000200000100100100000100000200000,
100100100100100000100000200000100000300000000000,
100000100100100000000000200000200000000000000000,
100000100100100000000000200000200000000000000000,
100000100100100000100000200000200000000000000000,
100000100100100000100000200000200000000000000000,
#END
COURSE:Hard
LEVEL:2
BALLOON:12,12
SCOREINIT:510
SCOREDIFF:110
#START
#BARLINEOFF
,
,
5,
000000000008000000000000000000000000000000000000,
,
,
,
#MEASURE 5/4
,
#BARLINEON
#MEASURE 4/4
100000100100100000000000200000200000000000000000,
100000100100100000000000200000200000000000000000,
100000100100100000000000200000200000000000000000,
100000100100100000000000200000200000100000000000,
100000100100100000200000100000100000100000100000,
100000200200200000200000200000100000100000100000,
100000200200200000200000200000100000100000100000,
100000200200200000200000200000100000100000000000,
100000100100100000200000100000100000100000100000,
100000200200200000200000200000100000100000100000,
100000200200200000200000200000100000100000100000,
100000200200200000200000200000100000100000000000,
100000100100100000200000100000100000100000100000,
100000200200200000200000200000100000100000100000,
700000000000000000000000000000800000000000000000,
100000200000100000200000100100100000100000200000,
100100100100100000100000200000100000300000000000,
100000200000100000200000100100100000100000200000,
100100100100100000100000200000100000300000000000,
100000100100100000000000200000200000000000000000,
100000100100100000000000200000200000000000000000,
100000100100100000100000200000200000000000000000,
100000100100100000100000200000200000000000000000,
200200000000100000000000200200000000100000000000,
200200200200200200200200200000000000100000000000,
200200000000100000000000200200000000100000000000,
200200200200200200200200200000000000100000000000,
200200000000100000000000200200000000100000000000,
200200200200200200200200200000000000100000000000,
200200000000100000000000200200000000100000000000,
200200200200200200200200200000000000100000000000,
100000100100100000200000100000100000100000100000,
100000200200200000200000200000100000100000100000,
100000200200200000200000200000100000100000100000,
100000200200200000200000200000100000100000000000,
100000100100100000200000100000100000100000100000,
100000200200200000200000200000100000100000100000,
100000200200200000200000200000100000100000100000,
100000200200200000200000200000100000100000000000,
100000100100100000200000100000100000100000100000,
100000200200200000200000200000100000100000100000,
700000000000000000000000000000800000000000000000,
100000200000100000200000100100100000100000200000,
100100100100100000100000200000100000300000000000,
100000200000100000200000100100100000100000200000,
100100100100100000100000200000100000300000000000,
100000100100100000000000200000200000000000000000,
100000100100100000000000200000200000000000000000,
100000100100100000100000200000200000000000000000,
100000100100100000100000200000200000000000000000,
#END
COURSE:Normal
LEVEL:3
BALLOON:12,12
SCOREINIT:840
SCOREDIFF:220
#START
#BARLINEOFF
,
,
5,
000000000008000000000000000000000000000000000000,
,
,
,
#MEASURE 5/4
,
#BARLINEON
#MEASURE 4/4
100000000000100000000000200000200000000000000000,
100000000000100000000000200000200000000000000000,
100000000000100000000000200000200000000000000000,
100000000000100000000000200000200000100000000000,
100000100000100000000000100000100000100000100000,
100000000000200000000000000000100000100000000000,
100000000000200000000000000000100000100000000000,
500000000000000000800000000000000000100000000000,
100000100000100000000000100000100000100000100000,
100000000000200000000000000000100000100000000000,
100000000000200000000000000000100000100000000000,
500000000000000000800000000000000000100000000000,
100000100000100000000000100000100000100000100000,
100000000000200000000000000000100000100000000000,
700000000000000000000000000000800000000000000000,
100000000000100000000000100000100000100000000000,
100000100000100000100000000000100000300000000000,
100000000000100000000000100000100000100000000000,
100000100000100000100000000000100000300000000000,
100000100000100000000000200000200000000000000000,
100000100000100000000000200000200000000000000000,
100000100000100000000000200000200000000000000000,
100000100000100000000000200000200000000000000000,
100000000000000000000000100000000000000000000000,
100000100000100000100000300000000000000000000000,
100000000000000000000000100000000000000000000000,
100000100000100000100000300000000000000000000000,
100000000000200000000000100000000000200000000000,
100000100000100000100000300000000000000000000000,
100000000000200000000000100000000000200000000000,
100000100000100000100000300000000000000000000000,
100000100000100000000000100000100000100000100000,
100000000000200000000000000000100000100000000000,
100000000000200000000000000000100000100000000000,
500000000000000000800000000000000000100000000000,
100000100000100000000000100000100000100000100000,
100000000000200000000000000000100000100000000000,
100000000000200000000000000000100000100000000000,
500000000000000000800000000000000000100000000000,
100000100000100000000000100000100000100000100000,
100000000000200000000000000000100000100000000000,
700000000000000000000000000000800000000000000000,
100000000000100000000000100000100000100000000000,
100000100000100000100000000000100000300000000000,
100000000000100000000000100000100000100000000000,
100000100000100000100000000000100000300000000000,
100000100000100000000000200000200000000000000000,
100000100000100000000000200000200000000000000000,
100000100000100000000000200000200000000000000000,
100000100000100000000000200000200000000000000000,
#END
COURSE:Easy
LEVEL:4
BALLOON:11,11
SCOREINIT:980
SCOREDIFF:300
#START
#BARLINEOFF
,
,
5,
000000000008000000000000000000000000000000000000,
,
,
,
#MEASURE 5/4
,
#BARLINEON
#MEASURE 4/4
100000000000100000000000100000000000000000000000,
100000000000100000000000100000000000000000000000,
100000000000100000000000100000000000000000000000,
100000000000100000000000100000000000000000000000,
100000000000000000000000100000000000100000000000,
100000000000000000000000000000100000100000000000,
100000000000000000000000000000100000100000000000,
500000000000000000800000000000000000000000000000,
100000000000000000000000100000000000100000000000,
100000000000000000000000000000100000100000000000,
100000000000000000000000000000100000100000000000,
500000000000000000800000000000000000000000000000,
100000000000000000000000100000000000100000000000,
100000000000000000000000000000100000100000000000,
700000000000000000000000000000800000000000000000,
100000000000100000000000100000000000000000000000,
100000100000100000100000000000200000200000000000,
100000000000100000000000100000000000000000000000,
100000100000100000100000000000200000200000000000,
100000000000000000000000200000200000000000000000,
100000000000000000000000200000200000000000000000,
100000000000000000000000200000200000000000000000,
100000000000000000000000200000200000000000000000,
100000000000000000000000100000000000000000000000,
100000000000100000000000300000000000000000000000,
100000000000000000000000100000000000000000000000,
100000000000100000000000300000000000000000000000,
100000000000200000000000100000000000000000000000,
100000000000100000000000300000000000000000000000,
100000000000200000000000100000000000000000000000,
100000000000100000000000300000000000000000000000,
100000000000200000000000100000000000100000000000,
100000000000000000000000000000100000100000000000,
100000000000000000000000000000100000100000000000,
500000000000000000800000000000000000000000000000,
100000000000200000000000100000000000100000000000,
100000000000000000000000000000100000100000000000,
100000000000000000000000000000100000100000000000,
500000000000000000800000000000000000000000000000,
100000000000200000000000100000000000100000000000,
100000000000000000000000000000100000100000000000,
700000000000000000000000000000800000000000000000,
100000000000100000000000100000100000100000000000,
100000100000100000100000000000200000200000000000,
100000000000100000000000100000100000100000000000,
100000100000100000100000000000200000200000000000,
100000000000100000000000200000200000000000000000,
100000000000100000000000200000200000000000000000,
100000000000100000000000200000200000000000000000,
100000000000100000000000200000200000000000000000,
#END