Files
2023-06-15 19:15:39 -05:00

208 lines
6.4 KiB
Plaintext
Raw Permalink Blame History

This file contains ambiguous Unicode characters
This file contains Unicode characters that might be confused with other characters. If you think that this is intentional, you can safely ignore this warning. Use the Escape button to reveal them.
//TJADB Project
TITLE:WINDING ROAD
TITLEJA:WINDING ROAD
SUBTITLE:--Ayaka × Kobukuro/Nissan Cube
BPM:88
WAVE:WINDING ROAD.ogg
OFFSET:-3.250
DEMOSTART:56.431
COURSE:Oni
LEVEL:5
SCOREINIT:1150
SCOREDIFF:290
#START
000000202020200000000000100010000010100020200000,
100000100000200000000010100000100000200000200000,
100000100000200000000010100000100000200000200000,
100000100000200000000010100000100000200000200000,
100000100000200000200020000000000000100000100000,
100020100020100000000000100020100020100010000000,
500000000000000000000008000000000000100000100000,
100020100020100000200000100020100020100000000000,
100000200000200020000000200020200000100000100000,
100020100020100000000000100020100020100010000000,
500000000000000000000008000000000000100000100000,
100020100020200000200000100020100020200000200000,
100010200010200010100010000010000010200000200000,
100020100010200000200000100020100010200000200000,
500000000000000000000000000008000000000000000000,
200000100000100010000010200000100000100010000010,
200010000010200010000010200010000020200000200000,
100010000010200010000020100010000010200010000000,
500000000000000000000000000000000008000000000000,
#MEASURE 2/4
200020000020000020000020,
#GOGOSTART
#MEASURE 4/4
100000100000100000100010000030000000000000002000,
200000200020100020000020100000100020100010000020,
100020100010000000100020100020100010000000100010,
200000100010200000100010200000000000000000000000,
300000300000300000000300000300000000000000200000,
200000200200000200000200100000000000100010001000,
100010000000000000100010100000100010200010000010,
200000000000000000000000300020002000300020002000,
500000000000000000000000000000000008000000000000,
#GOGOEND
#END
COURSE:Hard
LEVEL:4
SCOREINIT:1420
SCOREDIFF:420
#START
#SCROLL 1.36
000000000000000000000000000000000000000000000000,
100000000000200000000010100000100000200000000000,
100000000000200000000010100000100000200000000000,
100000000000200000000010100000100000200000000000,
100000000000000000000000000000000000100000100000,
100000100000200000000010100000100000200000000000,
500000000000000000000008000000000000100000100000,
100000100000200000000010100000100000200000000000,
100000000000000000000000000000000000100000100000,
100000100000200000000010100000100000200000000000,
500000000000000000000008000000000000200000200000,
200000100000200000100000200000100000200000200000,
500000000000000000000008000000000000000000000000,
200000200000200000000010100000100000200000200000,
500000000000000000000000000008000000000000000000,
100000100000200000000010100000100000200000000000,
100000100000200000000010100000100000200000000000,
100000100000200000000010100000100000200000200000,
500000000000000000000000000000000008000000000000,
#MEASURE 2/4
000000000000000000000000,
#GOGOSTART
#MEASURE 4/4
100000100000100000300030000030000000000000200000,
200000200020000020000020000000000000000000100010,
100000100010000000200020200000200020000000300000,
300000000000300000300030000000000000000000000000,
100000100000100000000300000300000000000000200000,
200000200200000200000200000000000000000000000000,
100000100000200000000010100000100000200000000000,
100000000000000000000000300000000000300000000000,
500000000000000000000000000000000008000000000000,
#GOGOEND
#END
COURSE:Normal
LEVEL:3
BALLOON:15
SCOREINIT:1600
SCOREDIFF:660
#START
#SCROLL 1.14
000000000000000000000000000000000000000000000000,
100000000000100000000000100000000000200000000000,
100000000000100000000000200000000000000000000000,
100000000000100000000000100000000000200000000000,
100000000000100000000000200000000000000000000000,
100000000000100000000000100000100000100000000000,
500000000000000000000000800000000000000000000000,
100000000000100000000000100000100000100000000000,
100000000000000000000000100000000000000000000000,
100000000000100000000000100000100000100000000000,
500000000000000000000000800000000000000000000000,
200000000000200000000000200000200000200000000000,
200000000000000000000000200000000000000000000000,
200000000000200000000000200000200000200000000000,
500000000000000000000000800000000000000000000000,
200000000000200000000000100000100000100000000000,
200000000000000000000000200000000000000000000000,
200000000000200000000000100000100000100000000000,
500000000000000000000000000000000000800000000000,
#MEASURE 2/4
000000000000000000000000,
#GOGOSTART
#MEASURE 4/4
100000100000100000100000000030000000000000000000,
200000000000200000000000200000000000000000000000,
100000100000000000000000100000100000000000000000,
300000000000300000000000300000000000000000000000,
100000100000100000000300000300000000000000000000,
200000000000200000000000200000000000000000000000,
100000100000100000000000100000100000100000000000,
100000000000000000000000300000000000300000000000,
900000000000000000000000000000000000000000000008,
#GOGOEND
#END
COURSE:Easy
LEVEL:2
BALLOON:12
SCOREINIT:1410
SCOREDIFF:790
#START
#SCROLL 1.14
000000000000000000000000000000000000000000000000,
100000000000000000000000100000000000100000000000,
100000000000000000000000100000000000100000000000,
100000000000000000000000100000000000100000000000,
100000000000000000000000000000000000000000000000,
100000000000100000000000100000000000000000000000,
500000000000000000000000800000000000000000000000,
100000000000100000000000100000000000000000000000,
200000000000000000000000000000000000000000000000,
100000000000100000000000100000000000000000000000,
500000000000000000000000800000000000000000000000,
200000000000200000000000200000000000000000000000,
500000000000000000000000800000000000000000000000,
200000000000200000000000200000000000000000000000,
500000000000000000000000800000000000000000000000,
100000000000100000000000100000000000000000000000,
100000000000000000000000100000000000000000000000,
100000000000100000000000100000000000000000000000,
500000000000000000000000000000000000800000000000,
#MEASURE 2/4
000000000000000000000000,
#GOGOSTART
#MEASURE 4/4
300000000000300000000000300000000000000000000000,
100000000000000000000000100000000000000000000000,
100000100000000000000000100000100000000000000000,
300000000000300000000000300000000000000000000000,
300000000000300000000000300000000000000000000000,
100000000000000000000000100000000000000000000000,
100000100000000000000000100000100000000000000000,
100000000000000000000000300000000000300000000000,
900000000000000000000000000000000000000000000008,
#GOGOEND
#END