Files
2023-01-17 00:45:18 -05:00

338 lines
4.4 KiB
Plaintext

//TJADB Project
TITLE:Watari-dori
TITLEJA:ワタリドリ
SUBTITLE:--[Alexandros]
SUBTITLEJA:[Alexandros]
BPM:135
WAVE:Watari-dori.ogg
OFFSET:-1.947
DEMOSTART:43.724
COURSE:Oni
LEVEL:9
BALLOON:17
SCOREINIT:670
SCOREDIFF:178
#START
1001000020020000,
1001000020020000,
1001000020020000,
1001000020020000,
#GOGOSTART
1001102211011020,
1001102212011022,
1001102211011020,
100000000100100000200200500000000000000008000000,
#GOGOEND
1002102011221020,
1002102011221022,
1002102011221020,
1002102211021020,
1002102011221020,
1002102011221022,
1002112210021122,
1002102011112222,
1011201011221020,
1011201010221120,
1001201012012010,
500000000000000008000000000000100100200000200000,
1011201011221020,
1011201010221120,
1022111120221111,
2022111110000000,
#GOGOSTART
1021102012021020,
1021102012021120,
1021102000400040,
600000000008000000000000300000000000400000000000,
1021102012021020,
1021102012021120,
1021102000400040,
7008,
1021102210211020,
1021102012211020,
1021102210211020,
1021102012211020,
1021102210211020,
1021102012211020,
1021102012211111,
#GOGOEND
2,
1001102211011020,
1001102212011020,
1001102211011020,
1001102011112222,
#GOGOSTART
1021102211011120,
1021102212011220,
1021102211011120,
1021111122221111,
1011021011021011,
#MEASURE 3/4
021011021000,
#MEASURE 4/4
1021012021012021,
0120212211112121,
2,
#GOGOEND
#END
COURSE:Hard
LEVEL:6
BALLOON:19,14,14
SCOREINIT:680
SCOREDIFF:180
#START
1001000020020000,
1001000020020000,
1001000020020000,
1001000020020000,
#GOGOSTART
1001100020022000,
1001100020022000,
1001100020022000,
100000000100100000000000600000000008000000000000,
#GOGOEND
1001001000111010,
1001001000111010,
1001001000100010,
500000000000000000000000000008000000000000000000,
1001001010111010,
1001001010111010,
1001001020020020,
1001004000101010,
2011101020101010,
2011101020101020,
1001001020020020,
500000000000000008000000000000100000100000100000,
2011101020101010,
2011101020100020,
9,
8,
#GOGOSTART
1001101010011010,
1001101010011020,
1001001000400040,
600000000008000000000000300000000000400000000000,
1001101010011010,
1001101010011020,
1001001000400040,
7008,
1001102010011020,
1001102010022020,
1001102010011020,
500000000000000000000000000000000008000000000000,
1001102010011020,
1001102010022020,
1001102000101111,
#GOGOEND
1,
1001100020022000,
1001100020022000,
1001100020022000,
1001100022022000,
#GOGOSTART
1101100022022000,
1101100022022000,
1101100022022000,
7008,
1001002002001001,
#MEASURE 3/4
002002001000,
#MEASURE 4/4
3003004004003003,
0040040010102020,
3,
#GOGOEND
#END
COURSE:Normal
LEVEL:4
BALLOON:15,13,10,10
SCOREINIT:910
SCOREDIFF:325
#START
,
,
,
,
#GOGOSTART
1001000020000000,
1001000020000000,
1001000020000000,
1001000040000000,
#GOGOEND
10101110,
10101110,
10101110,
500000000000000000000000000008000000000000000000,
10101110,
10101110,
7,
80000111,
02220111,
02220000,
1001000010000000,
500000000000000008000000000000100000100000100000,
02220111,
02220000,
9,
8,
#GOGOSTART
1001001010000000,
30000101,
1001001000400040,
600000000008000000000000300000000000400000000000,
1001001010000000,
30000101,
1001001000400040,
7008,
1001001010003000,
1001001010003000,
30000111,
500000000000000000000000000000000008000000000000,
1001001010003000,
1001001010003000,
30000111,
#GOGOEND
4,
1001000020000000,
1001000020000000,
1001000020000000,
1001000020000000,
#GOGOSTART
1001000020020000,
1001000020020000,
1001000020020000,
7008,
1001001000001001,
#MEASURE 3/4
010010,
#MEASURE 4/4
1001002000001001,
0020000010101010,
3,
#GOGOEND
#END
COURSE:Easy
LEVEL:3
BALLOON:11,3,3,11,12,8
SCOREINIT:990
SCOREDIFF:575
#START
,
,
,
,
#GOGOSTART
12,
12,
12,
12,
#GOGOEND
1110,
1110,
1111,
500000000000000000000000000008000000000000000000,
1110,
1110,
9,
8,
07000800,
07000800,
11,
500000000000000008000000000000000000000000000000,
3,
4,
9,
8,
#GOGOSTART
1212,
1110,
30000600,
000000000000000008000000000000000000000000000000,
1212,
1110,
30000700,
00000800,
1212,
1213,
30000500,
000000000000000000000000000000000008000000000000,
1212,
1213,
3,
#GOGOEND
4,
12,
12,
12,
12,
#GOGOSTART
34,
34,
34,
7008,
1001,
#MEASURE 3/4
001,
#MEASURE 4/4
1001,
0011,
4,
#GOGOEND
#END