Files
2023-06-15 19:00:23 -05:00

384 lines
15 KiB
Plaintext

//TJADB Project
TITLE:Yoru no Odoriko
TITLEJA:夜の踊り子
SUBTITLE:--Sakanaction
BPM:134
WAVE:Yoru no Odoriko.ogg
OFFSET:-1.985
DEMOSTART:103.176
COURSE:Oni
LEVEL:8
BALLOON:5
SCOREINIT:570
SCOREDIFF:138
#START
#BARLINEOFF
#MEASURE 2/4
000000200000200000200000,
#BARLINEON
#MEASURE 4/4
100000200100200000200000000200200000100000200100,
200000200000000200200000100000200100200000300000,
300000200100100000200000000200200000100000200100,
100000200000000200200000100000200000200000200000,
100000200100200000200000000200200000100000200100,
200000200000000200200000100000200100200000300000,
300000200100100000200000000200200000100000200100,
100000200000000200200000100000200000200000000000,
300000000100200000200000100000100000200000100100,
000000100100200000200000100000100200200000000000,
100000200100200000200000100000100000200000100100,
000000200200100000100000200000100200200000200000,
100000000100200000200000100000100000200000100100,
000000100100200000200000100000100200200000000000,
100000200100200000200000100000100000200000100100,
000000200200100000100000200000100200200000200000,
100000000100000000200000000200000000100000000100,
000000200000000200000000100000200000100000200200,
000000200000100000200000100200100000200000100200,
100000200100100000200000200100100000200000000000,
100000000100000000200000000200000000100000000100,
000000200000000200000000100000200000100000200200,
000000200000100000200000100200100000200000100200,
100000200100100000200000700000000000000800000000,
300000000100200000200000100000100000200000100100,
000000100100200000200000100000100200200000000000,
100000200100200000200000100000100000200000100100,
000000200200100000100000200000100200200000200000,
100000000100200000200000100000100000200000100100,
000000100100200000200000100000100200200000000000,
100000200100200000200000100000100000200000100100,
000000200200100000100000200000100200200000200000,
100000000100000000200000000200000000100000000100,
000000200000000200000000100000200000100000200200,
000000200000100000200000100200100000200000100200,
100000200200100000100000200000100200200000200000,
100000000100000000200000000200000000100000000100,
000000200000000200000000100000200000100000200200,
000000200200100000200000000000200200100000200000,
100000100000100000100000100000100000100000100000,
#GOGOSTART
300000000200100000200000100000200100100000600000,
000000000000000000000000000000000008000000000000,
300000000200100000200000100000200200100000600000,
000000000000000000000000000000000008000000000000,
300000000200100000200000100000000200100000100200,
100000000200100000200000300000000000600000000000,
000000000000000000000000000000000000000000000000,
000000000000000000000000000000000008000000000000,
300000000200100000200000100000200100100000600000,
000000000000000000000000000000000008000000000000,
300000000200100000200000100000200200100000600000,
000000000000000000000000000000000008000000000000,
300000000200100000200000100000000200100000100200,
100000000200100000200000300000000000600000000000,
000000000000000000000000000000000000000008000000,
300000000000300000000000300000300000300000300000,
300000200100200000100200100000200200200000200000,
100000200100200000100000100000100200200000200000,
100000200100200000100200100000200200200000200000,
100000200100200000100000100000100200200000200000,
100000200100200000100200100000200200200000200000,
100000200100200000100000100000100200200000200000,
000000000000400000300000000000300000000000300000,
000000000000400000300000000000300000000000300000,
000000200100200000100200100000200200200000200000,
100000200100200000100000100000100200200000200000,
100000200100200000100200100000200200200000200000,
100000200100200000100000100000100200200000200000,
000000000000400000300000000000300000000000300000,
000000000000400000300000000000300000300000400000,
000000000000400000300000000000000000400000600000,
000000000000000000000000000000000008000000000000,
#GOGOEND
#END
COURSE:Hard
LEVEL:5
BALLOON:14
SCOREINIT:670
SCOREDIFF:173
#START
#BARLINEOFF
#MEASURE 2/4
0222,
#BARLINEON
#MEASURE 4/4
100000000000000000200000000000000000100000000000,
000000200000000000000000100000000000000000300000,
300000000000000000200000000000000000100000000000,
000000200000000000000000000000200000200000200000,
100000000000000000200000000000000000100000000000,
000000200000000000000000100000000000000000300000,
300000000000000000200000000000000000100000000000,
000000200000000000100000100000200000200000000000,
100000000000200000200000100000100000200000000000,
000000100000100000200000100000100000200000000000,
000000100000200000100000200000000000000000100000,
000000100100100000100000200000200000200000000000,
100000000000200000200000100000100000200000000000,
000000100000100000200000100000100000200000000000,
000000100000200000100000200000000000000000100000,
000000100100100000100000200000200000200000000000,
100000000000200000000000100000000000200000000000,
100000000000200000000000100000000000500000000000,
000000000000000000000000000800000000000000100000,
000000100100100000100000200000200000200000000000,
100000000000200000000000100000000000200000000000,
100000000000200000000000100000000000500000000000,
000000000000000000000000000800000000000000100000,
000000100100100000100000200000100000200000000000,
100000000000200000200000100000100000200000000000,
000000100000100000200000100000100000200000000000,
000000100000100000200000200000000000000000100000,
000000100100100000100000100000200000200000000000,
100000000000200000200000100000100000200000000000,
000000100000100000200000100000100000200000000000,
000000100000100000200000200000000000000000100000,
000000100100100000100000100000200000200000000000,
100000000000200000000000100000000000200000000000,
100000000000200000000000100000000000500000000000,
000000000000000000000000000800000000000000100000,
000000100100100000100000200000100000200000000000,
100000000000200000000000100000000000200000000000,
100000000000200000000000100000000000500000000000,
000000000000000000000000000000000000000000000000,
000000000000000000000000000000000800000000000000,
#GOGOSTART
300000000000300000000000000000000000300000600000,
000000000000000000000000800000000000000000000000,
300000000000300000000000000000000000400000600000,
000000000000000000000000800000000000000000000000,
300000000000300000000000000000000000300000600000,
000000800000000000000000300000000000600000000000,
000000000000000000000000000000000000000000000000,
000000000000000000000000000000800000000000000000,
300000000000300000000000000000000000300000600000,
000000000000000000000000800000000000000000000000,
300000000000300000000000000000000000400000600000,
000000000000000000000000800000000000000000000000,
300000000000300000000000000000000000300000600000,
000000800000000000000000300000000000600000000000,
000000000000000000000000000000000000000000000000,
000000000000000000000000000000800000000000000000,
100000200000100000200000100000200000000000200000,
100000200000100000200000100000200200200000200000,
000000200000100000200000100000200000000000200000,
100000200000100000200000100000200200200000200000,
000000200000100000200000100000200000000000200000,
100000200000100000200000100000200200200000200000,
000000000000400000300000000000300000000000300000,
000000000000400000300000000000300000000000300000,
000000200000100000200000100000200000000000200000,
100000200000100000200000100000200200200000200000,
000000200000100000200000100000200000000000200000,
100000200000100000200000100000200200200000200000,
000000000000400000300000000000300000000000300000,
000000000000400000300000000000300000300000400000,
000000000000400000300000000000000000300000900000,
000000000000000000000000000000000000000000000008,
#END
COURSE:Normal
LEVEL:4
BALLOON:8,8,8,7,10
SCOREINIT:830
SCOREDIFF:213
#START
#BARLINEOFF
#MEASURE 2/4
,
#BARLINEON
#MEASURE 4/4
100000000000000000100000000000000000000000000000,
000000000000000000000000000000000000000000300000,
300000000000000000000000000000000000000000000000,
000000000000000000000000000000000000000000000000,
100000000000000000100000000000000000000000000000,
000000000000000000000000000000000000000000300000,
300000000000000000000000000000000000000000000000,
000000000000000000000000000000000000000000000000,
100000000000100000000000100000100000100000000000,
000000000000100000000000100000100000100000000000,
000000000000200000000000200000000000000000100000,
000000100000100000000000100000000000000000000000,
100000000000100000000000100000100000100000000000,
000000000000100000000000100000100000100000000000,
000000000000200000000000200000000000000000100000,
000000100000100000000000100000000000000000000000,
100000000000100000000000100000000000100000000000,
100000000000100000000000100000000000500000000000,
000000000000000000000000000000000000000000800000,
000000000000000000000000000000000000000000000000,
200000000000200000000000200000000000200000000000,
200000000000200000000000200000000000500000000000,
000000000000000000000000000000000000000000800000,
000000000000000000000000000000000000000000000000,
100000000000100000000000100000100000100000000000,
000000000000100000000000100000100000100000000000,
000000000000200000000000200000000000000000100000,
000000100000100000000000100000000000000000000000,
100000000000100000000000100000100000100000000000,
000000000000100000000000100000100000100000000000,
000000000000200000000000200000000000000000100000,
000000100000100000000000100000000000000000000000,
100000000000100000000000100000000000100000000000,
100000000000100000000000100000000000500000000000,
000000000000000000000000000000000000000000800000,
000000000000000000000000000000000000000000000000,
200000000000200000000000200000000000200000000000,
200000000000200000000000200000000000500000000000,
000000000000000000000000000000000000000000000000,
000000000000000000000000800000000000000000000000,
#GOGOSTART
300000000000300000000000000000000000300000600000,
000000000000000000000000800000000000000000000000,
300000000000300000000000000000000000300000600000,
000000000000000000000000800000000000000000000000,
300000000000300000000000000000000000300000600000,
000000800000000000000000300000000000600000000000,
000000000000000000000000000000000000000000000000,
000000000000000000000000000000800000000000000000,
300000000000300000000000000000000000300000600000,
000000000000000000000000800000000000000000000000,
300000000000300000000000000000000000300000600000,
000000000000000000000000800000000000000000000000,
300000000000300000000000000000000000300000600000,
000000800000000000000000300000000000600000000000,
000000000000000000000000000000000000000000000000,
000000000000000000000000000000800000000000000000,
100000000000100000000000100000100000100000000000,
100000100000100000000000100000000000200000000000,
100000000000100000000000100000100000100000000000,
100000100000100000000000100000000000200000000000,
100000000000100000000000100000100000100000000000,
100000100000100000000000100000000000200000000000,
700000000000000000000000800000000000000000000000,
700000000000000000000000800000000000000000000000,
100000000000100000000000100000100000100000000000,
100000100000100000000000200000000000200000000000,
100000000000100000000000100000100000100000000000,
100000100000100000000000200000000000200000000000,
700000000000000000000000800000000000000000000000,
700000000000000000800000000000000000300000300000,
000000000000300000300000000000000000300000900000,
000000000000000000000000000000800000000000000000,
#END
COURSE:Easy
LEVEL:3
BALLOON:5,5,5,4,5
SCOREINIT:610
SCOREDIFF:153
#START
#BARLINEOFF
#MEASURE 2/4
,
#BARLINEON
#MEASURE 4/4
100000000000000000100000000000000000000000000000,
000000000000000000000000000000000000000000000000,
300000000000000000000000000000000000000000000000,
000000000000000000000000000000000000000000000000,
100000000000000000100000000000000000000000000000,
000000000000000000000000000000000000000000000000,
300000000000000000000000000000000000000000000000,
000000000000000000000000000000000000000000000000,
100000000000100000000000100000000000100000000000,
000000000000100000000000100000000000100000000000,
000000000000200000000000200000000000000000000000,
100000000000100000000000100000000000000000000000,
100000000000100000000000100000000000100000000000,
000000000000100000000000100000000000100000000000,
000000000000200000000000200000000000000000000000,
100000000000100000000000100000000000000000000000,
100000000000100000000000100000000000100000000000,
100000000000100000000000100000000000500000000000,
000000000000000000000000000000000000800000000000,
000000000000000000000000000000000000000000000000,
200000000000200000000000200000000000200000000000,
200000000000200000000000200000000000500000000000,
000000000000000000000000000000000000800000000000,
000000000000000000000000000000000000000000000000,
100000000000100000000000100000000000100000000000,
000000000000100000000000100000000000100000000000,
000000000000200000000000200000000000000000000000,
100000000000100000000000100000000000000000000000,
100000000000100000000000100000000000100000000000,
000000000000100000000000100000000000100000000000,
000000000000200000000000200000000000000000000000,
100000000000100000000000100000000000000000000000,
100000000000100000000000100000000000100000000000,
100000000000100000000000100000000000500000000000,
000000000000000000000000000000000000800000000000,
000000000000000000000000000000000000000000000000,
200000000000200000000000200000000000200000000000,
200000000000200000000000200000000000500000000000,
000000000000000000000000000000000000000000000000,
000000000000000000000000800000000000000000000000,
#GOGOSTART
300000000000300000000000000000000000300000000000,
600000000000000000000000800000000000000000000000,
300000000000300000000000000000000000300000000000,
600000000000000000000000800000000000000000000000,
300000000000300000000000000000000000300000000000,
300000000000000000000000300000000000600000000000,
000000000000000000000000000000000000000000000000,
000000000000000000000000800000000000000000000000,
300000000000300000000000000000000000400000000000,
600000000000000000000000800000000000000000000000,
300000000000300000000000000000000000400000000000,
600000000000000000000000800000000000000000000000,
300000000000300000000000000000000000300000000000,
300000000000000000000000400000000000600000000000,
000000000000000000000000000000000000000000000000,
000000000000000000000000800000000000000000000000,
100000000000100000000000100000000000100000000000,
100000000000200000000000100000000000000000000000,
100000000000100000000000100000000000100000000000,
100000000000200000000000100000000000000000000000,
100000000000100000000000100000000000100000000000,
100000000000200000000000100000000000000000000000,
700000000000000000000000800000000000000000000000,
700000000000000000000000800000000000000000000000,
100000000000100000000000100000000000200000000000,
100000000000200000000000100000000000000000000000,
100000000000100000000000100000000000200000000000,
100000000000200000000000100000000000000000000000,
700000000000000000000000800000000000000000000000,
700000000000000000800000000000000000000000300000,
000000000000000000300000000000000000000000900000,
000000000000000000800000800000000000000000000000,
#END