forked from ESE/ESE
278 lines
6.0 KiB
Plaintext
278 lines
6.0 KiB
Plaintext
//TJADB Project
|
|
TITLE:1 Dream
|
|
TITLEJA:1 ドリーム
|
|
SUBTITLE:--Little Blue boX/Little Battlers Experience
|
|
SUBTITLEJA:「ダンボール戦機」より
|
|
BPM:132
|
|
WAVE:1 Dream.ogg
|
|
OFFSET:-2.284
|
|
DEMOSTART:52.647
|
|
|
|
COURSE:Oni
|
|
LEVEL:5
|
|
BALLOON:15
|
|
SCOREINIT:770
|
|
SCOREDIFF:238
|
|
|
|
|
|
#START
|
|
|
|
|
|
#GOGOSTART
|
|
100000200000100100100000100000200000100100100000,
|
|
300000000000300000000000300000000000100000200000,
|
|
100000200000100100100000100000200000100100100000,
|
|
100000000100000000300000300000000000000000000000,
|
|
100000200000100100200000100000200000100100200000,
|
|
300000000000300000000000300000000000100000200000,
|
|
100000200000100100100000100000200000100100100000,
|
|
100000000100000000300000300000000000000000000000,
|
|
|
|
#GOGOEND
|
|
100100000100100000100100000100100000100000000000,
|
|
100100000100100000100100000000000000000000000000,
|
|
100000000100000000200000100000000100000000200000,
|
|
100000000100000000200000100000200000100100100000,
|
|
100000000100000000200000100000000100000000200000,
|
|
100000000100000000200000100000200000100100100000,
|
|
100000000000000000200000000000100000200000100100,
|
|
100000000000000000200000000000100000200000000000,
|
|
100100000100100000100100000100100000100000200000,
|
|
100100000100100000100100000000000000000000000000,
|
|
100100000100100000100100000100100000100000200000,
|
|
300000000000300000300000000000000000000000000000,
|
|
100000000200000000200000100000200000100100100000,
|
|
100000000200000000200000100000000000000000000000,
|
|
100000000200000000200000100000200000100100100000,
|
|
300000000000300000000000300000000000000000000000,
|
|
100000000200000000200000100000200000100100100000,
|
|
100000000200000000200000100000000000000000300000,
|
|
300000000000000000300000300000000000000000300000,
|
|
700000000000000000000000000000000000800000000000,
|
|
|
|
#GOGOSTART
|
|
100000200000100100100000100000200000100100100000,
|
|
300000000000300000000000300000000000100000200000,
|
|
100000200000100100100000100000200000100100100000,
|
|
100000000100000000300000300000000000000000000000,
|
|
100000200000100100200000100000200000100100200000,
|
|
300000000000300000000000300000000000100000200000,
|
|
100000200000100100100000100000200000100100100000,
|
|
100000000100000000300000300000000000000000000000,
|
|
100000200000100100100000100000200000100100100000,
|
|
300000000000300000000000300000000000100000200000,
|
|
100000200000100100100000100000200000100100100000,
|
|
100000000100000000300000300000000000000000000000,
|
|
100000200000100100200000100000200000100100200000,
|
|
300000000000300000000000300000000000100000200000,
|
|
100000200000100100100000100000200000100100100000,
|
|
300000000300000000300000400000000400000000400000,
|
|
|
|
#GOGOEND
|
|
300000000000000000000000000000000000000000000000,
|
|
|
|
|
|
#END
|
|
|
|
|
|
COURSE:Hard
|
|
LEVEL:3
|
|
BALLOON:10
|
|
SCOREINIT:780
|
|
SCOREDIFF:210
|
|
|
|
|
|
#START
|
|
|
|
|
|
#GOGOSTART
|
|
11101120,
|
|
11201110,
|
|
11201120,
|
|
100000000100000000300000300000000000000000000000,
|
|
100000000000100100100000100000000000100100100000,
|
|
100000000000200000000000100000000000200000000000,
|
|
100000100000200000000000100000100000200000000000,
|
|
100000000100000000300000300000000000000000000000,
|
|
|
|
#GOGOEND
|
|
100000000100000000100000000000100000200000200000,
|
|
300000000300000000300000000000000000000000000000,
|
|
100000000000100000100000100000000000200000000000,
|
|
100000000000100000100000100000000000000000000000,
|
|
100000000000100000100000100000000000200000000000,
|
|
100000000000100000100000100000000000000000000000,
|
|
100000000000100000100000000000200000200000000000,
|
|
100000000000100000100000000000200000200000000000,
|
|
100000000100000000100000000100000000200000200000,
|
|
100000000100000000100000000000000000000000000000,
|
|
100000000100000000100000000000100000200000200000,
|
|
300000000000400000400000000000000000000000000000,
|
|
100000000200000000100000100000000000200000000000,
|
|
100000000200000000100000100000000000000000000000,
|
|
100000000200000000100000100000000000200000000000,
|
|
300000000000400000000000300000000000000000000000,
|
|
100000000200000000100000100000000000200000000000,
|
|
100000000200000000100000100000000000000000000000,
|
|
100000000000000000100000100000000000000000100000,
|
|
78,
|
|
|
|
#GOGOSTART
|
|
100000100000100000000000100000100000200000000000,
|
|
100000100000200000000000100000100000100000000000,
|
|
100000100000200000000000100000100000200000000000,
|
|
100000000100000000300000300000000000000000000000,
|
|
100000000000100100100000100000000000100100100000,
|
|
100000000000200000000000100000000000200000000000,
|
|
100000100000200000000000100000100000200000000000,
|
|
100000000100000000300000300000000000000000000000,
|
|
100000100000100000000000100000100000200000000000,
|
|
100000100000200000000000100000100000100000000000,
|
|
100000100000200000000000100000100000200000000000,
|
|
100000000100000000300000300000000000000000000000,
|
|
100000000000100100100000100000000000100100100000,
|
|
100000000000200000000000100000000000200000000000,
|
|
500000000000000008000000000000100000100000000000,
|
|
300000000300000000300000400000000400000000400000,
|
|
|
|
#GOGOEND
|
|
3,
|
|
|
|
|
|
#END
|
|
|
|
|
|
COURSE:Normal
|
|
LEVEL:3
|
|
BALLOON:4
|
|
SCOREINIT:930
|
|
SCOREDIFF:310
|
|
|
|
|
|
#START
|
|
|
|
|
|
#GOGOSTART
|
|
3330,
|
|
3340,
|
|
1110,
|
|
1120,
|
|
11101000,
|
|
1120,
|
|
11101000,
|
|
10011000,
|
|
|
|
#GOGOEND
|
|
1112,
|
|
1,
|
|
10011010,
|
|
10011000,
|
|
10011010,
|
|
10011000,
|
|
500000000000000000000000000008000000000000000000,
|
|
500000000000000000000000000008000000000000000000,
|
|
1112,
|
|
1110,
|
|
1112,
|
|
1,
|
|
10011010,
|
|
1110,
|
|
10011010,
|
|
1120,
|
|
10011010,
|
|
1110,
|
|
11,
|
|
70000008,
|
|
|
|
#GOGOSTART
|
|
3330,
|
|
3340,
|
|
1110,
|
|
1120,
|
|
11101000,
|
|
1120,
|
|
11101000,
|
|
10011000,
|
|
3330,
|
|
3340,
|
|
1110,
|
|
1120,
|
|
11101000,
|
|
1120,
|
|
500000000000000000000000000008000000000000000000,
|
|
303000303000,
|
|
|
|
#GOGOEND
|
|
3,
|
|
|
|
|
|
#END
|
|
|
|
|
|
COURSE:Easy
|
|
LEVEL:2
|
|
BALLOON:3
|
|
SCOREINIT:990
|
|
SCOREDIFF:795
|
|
|
|
|
|
#START
|
|
|
|
|
|
#GOGOSTART
|
|
33,
|
|
3330,
|
|
11,
|
|
1,
|
|
11,
|
|
2220,
|
|
11,
|
|
500000000000000000000000000008000000000000000000,
|
|
|
|
#GOGOEND
|
|
1001,
|
|
1,
|
|
11,
|
|
1,
|
|
11,
|
|
1,
|
|
500000000000000000000000000008000000000000000000,
|
|
500000000000000000000000000008000000000000000000,
|
|
1001,
|
|
1,
|
|
1001,
|
|
1,
|
|
1011,
|
|
11,
|
|
1011,
|
|
1,
|
|
1011,
|
|
11,
|
|
11,
|
|
70000008,
|
|
|
|
#GOGOSTART
|
|
33,
|
|
3330,
|
|
11,
|
|
1,
|
|
11,
|
|
1110,
|
|
11,
|
|
500000000000000000000000000008000000000000000000,
|
|
33,
|
|
3330,
|
|
11,
|
|
1,
|
|
11,
|
|
2220,
|
|
500000000000000000000008000000000000000000000000,
|
|
33,
|
|
|
|
#GOGOEND
|
|
3,
|
|
|
|
|
|
#END
|
|
|