Files
2023-06-15 19:00:23 -05:00

296 lines
9.2 KiB
Plaintext
Raw Permalink Blame History

This file contains ambiguous Unicode characters
This file contains Unicode characters that might be confused with other characters. If you think that this is intentional, you can safely ignore this warning. Use the Escape button to reveal them.
//TJADB Project
TITLE:ALMIGHTY ~Kamen no Yakusoku~
TITLEJA:ALMIGHTY~仮面の約束 feat.川上洋平
SUBTITLE:--TOKYO SKA PARADISE ORCHESTRA/Kamen Rider Saber
BPM:154
WAVE:ALMIGHTY ~Kamen no Yakusoku~.ogg
OFFSET:-0.603
DEMOSTART:56.601
COURSE:Oni
LEVEL:6
BALLOON:15,17
SCOREINIT:3100
SCOREDIFF:0
#START
30030030,
0000001110111010,
30030030,
0010111022201000,
1011101020102010,
1000101110102010,
1011101020102010,
1000101110102010,
1011101020102010,
1000101110102010,
500000000000000000000000000000000000000000000008,
,
1000101110102010,
1000101110101020,
1000101110102020,
1000101110101020,
1000101110202010,
1000101110201020,
1000101110202020,
1000101110101020,
500000000000000000000000000000000000000000000008,
0000101110102020,
500000000000000000000000000000000000000000000008,
0000101110102020,
1000101110101020,
1000101110102010,
1000101110101000,
1001001020111000,
20002022,
22,
20002022,
22,
20002022,
20202220,
31113111,
31113000,
#GOGOSTART
3011101110200020,
1011101010102000,
1011101110200020,
1011101010102000,
1011101120100020,
1011101120101000,
70000008,
1011101120102000,
3011101110200020,
1011101010102000,
1011101110200020,
1011101010102010,
1011101010200020,
34,
7,
8,
#GOGOEND
#END
COURSE:Hard
LEVEL:4
BALLOON:12,14
SCOREINIT:6020
SCOREDIFF:0
#START
300000000000000000300000000000000000300000000000,
000000000000000000000000000000000000000000000000,
300000000000000000300000000000000000300000000000,
000000000000000000000000000000000000000000000000,
100000000000000000100000100000000000100000000000,
100000000000100000200000100000000000200000000000,
100000000000000000100000100000000000100000000000,
100000000000100000200000100000000000200000000000,
100000000000000000100000100000000000100000000000,
100000000000100000200000100000000000200000000000,
500000000000000000000000000000000000000000000080,
000000000000000000000000000000000000000000000000,
100000000000000000100000100000000000000000000000,
100000000000000000100000200000000000000000000000,
100000000000000000100000100000000000000000000000,
200000000000000000100000200000000000000000000000,
100000000000000000100000100000000000000000000000,
100000000000000000100000200000000000000000000000,
100000000000000000100000100000000000000000000000,
200000000000000000100000200000100000200000000000,
500000000000000000000000000000000000000000000080,
000000000000000000100000100000100000200000000000,
500000000000000000000000000000000000000000000080,
000000000000000000100000200000100000200000000000,
100000000000000000100000100000000000200000000000,
100000000000000000100000100000100000200000000000,
100000000000000000100000100000000000200000000000,
100000000000000000100000200000100000200000000000,
200000000000000000000000200000000000200000000000,
200000000000000000000000200000000000000000000000,
200000000000000000000000200000000000200000000000,
200000000000000000000000200000000000000000000000,
200000000000000000000000200000000000000000000000,
200000000000000000000000200000000000000000000000,
300000000000000000000000300000000000000000000000,
300000000000000000000000300000000000000000000000,
#GOGOSTART
300000000000100000000000100000200000000000200000,
100000000000100000000000100000100000100000000000,
100000000000100000000000100000200000000000200000,
100000000000100000000000100000100000100000000000,
100000000000100000100000000000200000000000200000,
100000000000100000000000200000100000100000000000,
700000000000000000000000000000000000800000000000,
100000000000100000000000100000100000100000000000,
300000000000100000000000100000200000000000200000,
100000000000100000000000100000100000100000000000,
100000000000100000000000100000200000000000200000,
100000000000100000000000100000100000100000000000,
200000000000100000100000000000100000000000100000,
300000000000000000000000400000000000000000000000,
900000000000000000000000000000000000000000000000,
8,
#GOGOEND
#END
COURSE:Normal
LEVEL:1
BALLOON:9,10
SCOREINIT:12750
SCOREDIFF:0
#START
300000000000000000300000000000000000300000000000,
000000000000000000000000000000000000000000000000,
300000000000000000300000000000000000300000000000,
000000000000000000000000000000000000000000000000,
100000000000000000000000100000000000000000000000,
100000000000100000000000100000000000000000000000,
100000000000000000000000100000000000000000000000,
100000000000100000000000100000000000000000000000,
100000000000000000000000100000000000000000000000,
100000000000100000000000100000000000000000000000,
500000000000000000000000000000000000000000000080,
000000000000000000000000000000000000000000000000,
100000000000000000000000000000000000000000000000,
100000000000000000000000000000000000000000000000,
100000000000000000000000100000000000000000000000,
200000000000000000000000000000000000000000000000,
100000000000000000000000000000000000000000000000,
100000000000000000000000000000000000000000000000,
100000000000000000000000100000000000000000000000,
200000000000000000000000000000000000000000000000,
500000000000000000000000000000000000000000000080,
000000000000000000000000100000000000000000000000,
500000000000000000000000000000000000000000000080,
000000000000000000000000100000000000000000000000,
100000000000000000000000000000000000000000000000,
100000000000000000000000200000000000000000000000,
100000000000000000000000000000000000000000000000,
000000000000000000000000000000000000000000000000,
200000000000000000000000000000000000000000000000,
200000000000000000000000000000000000000000000000,
200000000000000000000000200000000000000000000000,
200000000000000000000000200000000000000000000000,
200000000000000000000000000000000000000000000000,
200000000000000000000000000000000000000000000000,
300000000000000000000000300000000000000000000000,
300000000000000000000000300000000000000000000000,
#GOGOSTART
300000000000100000000000100000000000000000000000,
100000000000000000000000200000000000000000000000,
100000000000100000000000100000000000000000000000,
100000000000000000000000200000000000000000000000,
100000000000000000000000100000000000000000000000,
100000000000000000000000200000000000000000000000,
700000000000000000000000000000000000800000000000,
000000000000000000000000000000000000000000000000,
300000000000100000000000100000000000000000000000,
100000000000000000000000200000000000000000000000,
100000000000100000000000100000000000000000000000,
100000000000000000000000200000000000000000000000,
100000000000100000000000100000000000000000000000,
300000000000000000000000400000000000000000000000,
9,
8,
#GOGOEND
#END
COURSE:Easy
LEVEL:1
BALLOON:7,8
SCOREINIT:22630
SCOREDIFF:0
#START
300000000000000000000000000000000000000000000000,
000000000000000000000000000000000000000000000000,
300000000000000000000000000000000000000000000000,
000000000000000000000000000000000000000000000000,
100000000000000000000000000000000000000000000000,
100000000000000000000000000000000000000000000000,
100000000000000000000000000000000000000000000000,
100000000000000000000000000000000000000000000000,
100000000000000000000000000000000000000000000000,
100000000000000000000000100000000000000000000000,
500000000000000000000000000000000000000000000080,
000000000000000000000000000000000000000000000000,
100000000000000000000000000000000000000000000000,
100000000000000000000000000000000000000000000000,
100000000000000000000000000000000000000000000000,
200000000000000000000000000000000000000000000000,
100000000000000000000000000000000000000000000000,
100000000000000000000000000000000000000000000000,
200000000000000000000000000000000000000000000000,
100000000000000000000000000000000000000000000000,
500000000000000000000000000000000000000000000080,
000000000000000000000000000000000000000000000000,
500000000000000000000000000000000000000000000080,
000000000000000000000000000000000000000000000000,
100000000000000000000000000000000000000000000000,
100000000000000000000000100000000000000000000000,
100000000000000000000000000000000000000000000000,
000000000000000000000000000000000000000000000000,
200000000000000000000000000000000000000000000000,
200000000000000000000000000000000000000000000000,
200000000000000000000000000000000000000000000000,
000000000000000000000000000000000000000000000000,
200000000000000000000000000000000000000000000000,
200000000000000000000000000000000000000000000000,
300000000000000000000000000000000000000000000000,
300000000000000000000000000000000000000000000000,
#GOGOSTART
300000000000000000000000100000000000000000000000,
100000000000000000000000000000000000000000000000,
100000000000000000000000100000000000000000000000,
100000000000000000000000000000000000000000000000,
100000000000000000000000000000000000000000000000,
100000000000000000000000000000000000000000000000,
700000000000000000000000000000000000800000000000,
000000000000000000000000000000000000000000000000,
300000000000000000000000100000000000000000000000,
100000000000000000000000000000000000000000000000,
100000000000000000000000100000000000000000000000,
100000000000000000000000000000000000000000000000,
200000000000000000000000000000000000000000000000,
300000000000000000000000000000000000000000000000,
9,
8,
#GOGOEND
#END