forked from ESE/ESE
486 lines
17 KiB
Plaintext
486 lines
17 KiB
Plaintext
//TJADB Project
|
|
TITLE:ALONES
|
|
TITLEJA:ALONES
|
|
SUBTITLE:--Aqua Timez/BLEACH
|
|
SUBTITLEJA:「BLEACH」より
|
|
BPM:187.5
|
|
WAVE:ALONES.ogg
|
|
OFFSET:-1.411
|
|
DEMOSTART:66.467
|
|
|
|
COURSE:Oni
|
|
LEVEL:7
|
|
BALLOON:20,15
|
|
SCOREINIT:780
|
|
SCOREDIFF:190
|
|
|
|
|
|
#START
|
|
|
|
|
|
100000000000000000000000000000000000100000000000,
|
|
#BPMCHANGE 188.35
|
|
#SCROLL 1.0087602867
|
|
100000000000000000000000200000000000000000000000,
|
|
#BPMCHANGE 193.65
|
|
#SCROLL 0.98115156209
|
|
100000000000000000000000000000000000100000000000,
|
|
#BPMCHANGE 188.41
|
|
#SCROLL 1.00843904251
|
|
100000000000200000000000100000000000000000000000,
|
|
#BPMCHANGE 187.87
|
|
#SCROLL 1.01133762708
|
|
100000000000000000000000100000000000200000000000,
|
|
#BPMCHANGE 192.17
|
|
#SCROLL 0.98870791486
|
|
100000000000100000000000200000000000200000000000,
|
|
#BPMCHANGE 188.91
|
|
#SCROLL 1.00576994336
|
|
100000000000000000000000200000000000000000000000,
|
|
#BPMCHANGE 190.81
|
|
#SCROLL 0.99575493946
|
|
100000000000000000000000200000000000100000000000,
|
|
#BPMCHANGE 189.49
|
|
#SCROLL 1.0026914349
|
|
100000000000000000000000000000000000100000000000,
|
|
#BPMCHANGE 190
|
|
#SCROLL 1
|
|
100000000000200000000000100000000000100000000000,
|
|
100000000000000000000000000000000000100000000000,
|
|
100000000000100000000000200000000000200000000000,
|
|
#BPMCHANGE 190.77
|
|
#SCROLL 0.99596372595
|
|
100000000000000000000000000000000000100000000000,
|
|
200000000000200000000000100000000000200000000000,
|
|
100000000000000000000000200000000000000000000000,
|
|
100000000000000000000000100000000000100000000000,
|
|
#BPMCHANGE 190
|
|
#SCROLL 1
|
|
700000000000000000000000000000000000000000000000,
|
|
000000000000000000000000000000000000000000000000,
|
|
800000000000000000000000000000000000200000100000,
|
|
000000200000100000000000100000100100100000100100,
|
|
100000000000200000000000100000000000200000100000,
|
|
000000100000200000000000100000000000200000100000,
|
|
100000000000200000000000100000000000200000100000,
|
|
000000100000200000000000100000000000200000100000,
|
|
100000000000200000000000100000000000200000100000,
|
|
000000100000200000000000100000100000200000000000,
|
|
100000000000200000100000100000200000100000100000,
|
|
000000100000200000000000100000100000200000100000,
|
|
100000000000200000000000100000000000200000100000,
|
|
000000100000200000000000100000000000200000100000,
|
|
100000000000200000000000100000000000200000100000,
|
|
000000100000200000000000100000000000200000100000,
|
|
100000000000200000000000100000000000200000100000,
|
|
000000100000200000000000100000100000200000000000,
|
|
100000000000200000100000000000200000100000100000,
|
|
000000200000100000100100100000100000100000100000,
|
|
100000100100100000200000100000100100100000200000,
|
|
100000100100100000200000100100100000200000100000,
|
|
100000100100100000200000100000100100100000200000,
|
|
100000100100100000200000100100100100200000100000,
|
|
#BPMCHANGE 188.74
|
|
#SCROLL 1.00667585038
|
|
200000000000200000200000000000200000000000200000,
|
|
#BPMCHANGE 187.93
|
|
#SCROLL 1.01101473953
|
|
000000200000200000000000100000000000200000200000,
|
|
200000000000200000200000000000200000000000200000,
|
|
#BPMCHANGE 195.63
|
|
#SCROLL 0.97122118284
|
|
000000200000100000000000000000000000000000000000,
|
|
#BPMCHANGE 190
|
|
#SCROLL 1
|
|
100000100100100000200000100000100100100000200000,
|
|
100000100100100000200000100100100000200000100000,
|
|
100000100100100000200000100000100100100000200000,
|
|
100000100100100000200000100100100100200000100000,
|
|
100000000000200000100000000000100000200000100000,
|
|
000000100000200000000000100000100000200000000000,
|
|
200000100000100000200000100000100000200000100000,
|
|
200000100000200000100000500000000000000008000000,
|
|
|
|
#GOGOSTART
|
|
100000000000200000000000100000100000200000100100,
|
|
100000100000200000100000100100100000200000100000,
|
|
100000000000200000000000100000100000200000100100,
|
|
100000100000200000100000100100100000200000100000,
|
|
100000000000200000000000100000100000200000100100,
|
|
100000100000200000100100100000100000200000100000,
|
|
100000200000100000200000100000200000100000200000,
|
|
300000000000300000000000300000000000300000000000,
|
|
100000000000000000100000200000000000100000100000,
|
|
100000200000100000000000200000000000100000100100,
|
|
100000000000000000100000200000000000100000100000,
|
|
100000200000100000000000200000000000200000100100,
|
|
100000000000200000000000100000100000200000100000,
|
|
100000000000200000000000100000100000200000200000,
|
|
100000200000100000200000100000200000100000200000,
|
|
100000200000100000200000100000200000100000100100,
|
|
700000000000000000000000000000000000000000000000,
|
|
000000000000000000000000800000000000000000000000,
|
|
|
|
#GOGOEND
|
|
|
|
|
|
#END
|
|
|
|
|
|
COURSE:Hard
|
|
LEVEL:6
|
|
BALLOON:15,10
|
|
SCOREINIT:1010
|
|
SCOREDIFF:260
|
|
|
|
|
|
#START
|
|
|
|
|
|
100000000000000000000000000000000000100000000000,
|
|
#BPMCHANGE 188.35
|
|
#SCROLL 1.0087602867
|
|
100000000000000000000000200000000000000000000000,
|
|
#BPMCHANGE 193.65
|
|
#SCROLL 0.98115156209
|
|
100000000000000000000000000000000000100000000000,
|
|
#BPMCHANGE 188.41
|
|
#SCROLL 1.00843904251
|
|
100000000000200000000000100000000000000000000000,
|
|
#BPMCHANGE 187.87
|
|
#SCROLL 1.01133762708
|
|
100000000000000000000000100000000000200000000000,
|
|
#BPMCHANGE 192.17
|
|
#SCROLL 0.98870791486
|
|
100000000000100000000000200000000000200000000000,
|
|
#BPMCHANGE 188.91
|
|
#SCROLL 1.00576994336
|
|
100000000000000000000000200000000000000000000000,
|
|
#BPMCHANGE 190.81
|
|
#SCROLL 0.99575493946
|
|
100000000000000000000000200000000000100000000000,
|
|
#BPMCHANGE 189.49
|
|
#SCROLL 1.0026914349
|
|
100000000000000000000000000000000000100000000000,
|
|
#BPMCHANGE 190
|
|
#SCROLL 1
|
|
100000000000200000000000100000000000100000000000,
|
|
100000000000000000000000000000000000100000000000,
|
|
100000000000100000000000200000000000200000000000,
|
|
#BPMCHANGE 190.77
|
|
#SCROLL 0.99596372595
|
|
100000000000000000000000000000000000100000000000,
|
|
200000000000200000000000100000000000200000000000,
|
|
100000000000000000000000200000000000000000000000,
|
|
100000000000100000000000100000000000100000000000,
|
|
#BPMCHANGE 190
|
|
#SCROLL 1
|
|
700000000000000000000000000000000000000000000000,
|
|
000000000000000000000000000000000000000000800000,
|
|
000000000000000000000000000000000000000000000000,
|
|
000000000000000000000000000000000000000000000000,
|
|
100000000000200000000000100000000000100000100000,
|
|
100000000000200000000000100000000000100000000000,
|
|
100000000000200000000000000000000000100000100000,
|
|
100000000000200000000000100000000000100000000000,
|
|
100000000000200000000000000000000000000000100000,
|
|
100000000000200000200000100000100000100000000000,
|
|
100000000000200000000000100000000000200000000000,
|
|
100000000000100000000000100000000000100000000000,
|
|
100000000000200000000000100000000000100000100000,
|
|
100000000000200000000000000000000000000000000000,
|
|
100000000000200000000000100000000000200000000000,
|
|
100000100000100000000000100000000000500000000000,
|
|
000000000000000000000000000000000000000000800000,
|
|
000000000000000000000000100000100000000000100000,
|
|
100000000000100000100000000000000000500000000000,
|
|
000000000000000000800000000000000000000000000000,
|
|
100000000000200000100000000000100000100000000000,
|
|
000000200000100000000000200000200000200000000000,
|
|
100000000000200000100000000000000000500000000000,
|
|
000000000000000000800000000000000000000000000000,
|
|
#BPMCHANGE 188.74
|
|
#SCROLL 1.00667585038
|
|
200000000000000000200000000000200000000000200000,
|
|
#BPMCHANGE 187.93
|
|
#SCROLL 1.01101473953
|
|
000000200000200000000000000000000000000000000000,
|
|
200000000000000000200000000000200000000000200000,
|
|
#BPMCHANGE 195.63
|
|
#SCROLL 0.97122118284
|
|
000000200000200000000000000000000000000000000000,
|
|
#BPMCHANGE 190
|
|
#SCROLL 1
|
|
100000000000200000100000000000100000100000000000,
|
|
000000200000100000000000200000200000200000000000,
|
|
100000000000200000100000000000000000500000000000,
|
|
000000000000000000800000000000000000000000100000,
|
|
100000000000200000100000000000200000100000000000,
|
|
000000200000100000000000100000100000100000100000,
|
|
100000000000200000100000000000200000100000000000,
|
|
500000000000000000000000800000000000000000000000,
|
|
|
|
#GOGOSTART
|
|
100000000000200000000000100000100000200000000000,
|
|
100000000000200000000000100000000000200000000000,
|
|
100000100000200000000000100000100000200000000000,
|
|
100000000000200000000000100000000000200000000000,
|
|
100000000000200000000000100000100000200000000000,
|
|
100000000000200000000000100000000000200000000000,
|
|
100000100000200000000000100000100000200000000000,
|
|
300000000000300000000000300000000000300000000000,
|
|
100000000000000000100000200000100000100000000000,
|
|
100000000000200000000000100000000000200000000000,
|
|
100000000000000000100000200000100000100000000000,
|
|
100000000000200000000000100000000000200000000000,
|
|
100000000000200000000000100000100000200000000000,
|
|
100000000000200000000000100000000000200000000000,
|
|
100000100000200000000000100000100000200000000000,
|
|
100000000000100000000000100000000000100000000000,
|
|
700000000000000000000000000000000000000000000000,
|
|
000000000000000000800000000000000000000000000000,
|
|
|
|
#GOGOEND
|
|
|
|
|
|
#END
|
|
|
|
|
|
COURSE:Normal
|
|
LEVEL:4
|
|
BALLOON:10,10
|
|
SCOREINIT:1140
|
|
SCOREDIFF:330
|
|
|
|
|
|
#START
|
|
|
|
|
|
100000000000000000000000000000000000100000000000,
|
|
#BPMCHANGE 188.35
|
|
#SCROLL 1.0087602867
|
|
100000000000200000000000100000000000200000000000,
|
|
#BPMCHANGE 193.65
|
|
#SCROLL 0.98115156209
|
|
100000000000000000000000000000000000100000000000,
|
|
#BPMCHANGE 188.41
|
|
#SCROLL 1.00843904251
|
|
100000000000200000000000100000000000200000000000,
|
|
#BPMCHANGE 187.87
|
|
#SCROLL 1.01133762708
|
|
100000000000000000000000200000000000000000000000,
|
|
#BPMCHANGE 192.17
|
|
#SCROLL 0.98870791486
|
|
100000000000100000000000200000000000000000000000,
|
|
#BPMCHANGE 188.91
|
|
#SCROLL 1.00576994336
|
|
100000000000000000000000200000000000000000000000,
|
|
#BPMCHANGE 190.81
|
|
#SCROLL 0.99575493946
|
|
100000000000000000000000100000000000100000000000,
|
|
#BPMCHANGE 189.49
|
|
#SCROLL 1.0026914349
|
|
100000000000000000000000000000000000100000000000,
|
|
#BPMCHANGE 190
|
|
#SCROLL 1
|
|
100000000000200000000000100000000000200000000000,
|
|
100000000000000000000000000000000000100000000000,
|
|
100000000000200000000000100000000000200000000000,
|
|
#BPMCHANGE 190.77
|
|
#SCROLL 0.99596372595
|
|
100000000000000000000000000000000000100000000000,
|
|
100000000000200000000000100000000000100000000000,
|
|
100000000000000000000000200000000000000000000000,
|
|
100000000000000000000000200000000000000000000000,
|
|
#BPMCHANGE 190
|
|
#SCROLL 1
|
|
700000000000000000000000000000000000000000000000,
|
|
000000000000000000000000000000000000000000800000,
|
|
000000000000000000000000000000000000000000000000,
|
|
000000000000000000000000000000000000000000000000,
|
|
100000000000000000000000200000000000000000000000,
|
|
100000000000000000000000100000000000100000000000,
|
|
100000000000000000000000200000000000000000000000,
|
|
100000000000000000000000100000000000100000000000,
|
|
100000000000000000000000200000000000000000000000,
|
|
100000000000000000000000200000000000000000000000,
|
|
100000000000000000000000100000000000000000000000,
|
|
100000000000100000000000100000000000100000000000,
|
|
100000000000000000000000200000000000000000000000,
|
|
100000000000100000000000000000000000000000000000,
|
|
100000000000100000000000100000000000100000000000,
|
|
100000000000100000000000100000000000500000000000,
|
|
000000000000000000000000000000000000000000800000,
|
|
000000000000000000000000000000000000000000000000,
|
|
100000000000000000100000000000000000500000000000,
|
|
000000000000000000800000000000000000000000000000,
|
|
100000000000000000100000000000000000100000000000,
|
|
000000000000000000000000000000000000000000000000,
|
|
100000000000000000100000000000000000500000000000,
|
|
000000000000000000800000000000000000000000000000,
|
|
#BPMCHANGE 188.74
|
|
#SCROLL 1.00667585038
|
|
200000000000200000000000000000200000000000000000,
|
|
#BPMCHANGE 187.93
|
|
#SCROLL 1.01101473953
|
|
000000000000000000000000000000000000000000000000,
|
|
200000000000200000000000000000200000000000000000,
|
|
#BPMCHANGE 195.63
|
|
#SCROLL 0.97122118284
|
|
000000000000000000000000000000000000000000000000,
|
|
#BPMCHANGE 190
|
|
#SCROLL 1
|
|
100000000000000000100000000000000000100000000000,
|
|
000000000000000000000000000000000000000000000000,
|
|
100000000000000000100000000000000000500000000000,
|
|
000000000000000000800000000000000000000000000000,
|
|
200000000000200000000000000000200000000000000000,
|
|
000000000000000000000000000000000000000000000000,
|
|
100000000000000000200000000000000000100000000000,
|
|
500000000000000000000000800000000000000000000000,
|
|
|
|
#GOGOSTART
|
|
100000000000000000000000000000000000100000000000,
|
|
100000000000200000000000100000000000200000000000,
|
|
100000000000000000000000000000000000100000000000,
|
|
100000000000200000000000100000000000200000000000,
|
|
100000000000000000000000200000000000000000000000,
|
|
100000000000100000000000200000000000000000000000,
|
|
100000000000000000000000200000000000000000000000,
|
|
300000000000000000000000300000000000300000000000,
|
|
300000000000000000000000000000000000100000000000,
|
|
100000000000200000000000100000000000200000000000,
|
|
100000000000000000000000000000000000100000000000,
|
|
100000000000200000000000100000000000200000000000,
|
|
100000000000000000000000000000000000100000000000,
|
|
100000000000200000000000100000000000100000000000,
|
|
100000000000000000000000200000000000000000000000,
|
|
100000000000000000000000200000000000000000000000,
|
|
700000000000000000000000000000000000000000000000,
|
|
000000000000000000800000000000000000000000000000,
|
|
|
|
#GOGOEND
|
|
|
|
|
|
#END
|
|
|
|
|
|
COURSE:Easy
|
|
LEVEL:3
|
|
BALLOON:10,10
|
|
SCOREINIT:910
|
|
SCOREDIFF:330
|
|
|
|
|
|
#START
|
|
|
|
|
|
100000000000000000000000000000000000100000000000,
|
|
#BPMCHANGE 188.35
|
|
#SCROLL 1.0087602867
|
|
100000000000000000000000000000000000000000000000,
|
|
#BPMCHANGE 193.65
|
|
#SCROLL 0.98115156209
|
|
100000000000000000000000000000000000000000000000,
|
|
#BPMCHANGE 188.41
|
|
#SCROLL 1.00843904251
|
|
100000000000000000000000100000000000100000000000,
|
|
#BPMCHANGE 187.87
|
|
#SCROLL 1.01133762708
|
|
100000000000000000000000000000000000000000000000,
|
|
#BPMCHANGE 192.17
|
|
#SCROLL 0.98870791486
|
|
100000000000000000000000200000000000000000000000,
|
|
#BPMCHANGE 188.91
|
|
#SCROLL 1.00576994336
|
|
100000000000000000000000200000000000000000000000,
|
|
#BPMCHANGE 190.81
|
|
#SCROLL 0.99575493946
|
|
100000000000000000000000000000000000100000000000,
|
|
#BPMCHANGE 189.49
|
|
#SCROLL 1.0026914349
|
|
100000000000000000000000000000000000000000000000,
|
|
#BPMCHANGE 190
|
|
#SCROLL 1
|
|
100000000000000000000000000000000000000000000000,
|
|
100000000000000000000000000000000000000000000000,
|
|
100000000000000000000000100000000000100000000000,
|
|
#BPMCHANGE 190.77
|
|
#SCROLL 0.99596372595
|
|
100000000000000000000000000000000000000000000000,
|
|
100000000000000000000000200000000000000000000000,
|
|
100000000000000000000000200000000000000000000000,
|
|
100000000000000000000000100000000000100000000000,
|
|
#BPMCHANGE 190
|
|
#SCROLL 1
|
|
700000000000000000000000000000000000000000000000,
|
|
000000000000000000000000000000000000000000800000,
|
|
000000000000000000000000000000000000000000000000,
|
|
000000000000000000000000000000000000000000000000,
|
|
100000000000000000000000000000000000000000000000,
|
|
100000000000000000000000100000000000100000000000,
|
|
100000000000000000000000000000000000000000000000,
|
|
100000000000000000000000100000000000100000000000,
|
|
100000000000000000000000000000000000000000000000,
|
|
100000000000000000000000100000000000000000000000,
|
|
100000000000000000000000100000000000000000000000,
|
|
100000000000000000000000000000000000000000000000,
|
|
100000000000000000000000100000000000100000000000,
|
|
100000000000000000000000000000000000000000000000,
|
|
100000000000000000000000000000000000000000000000,
|
|
100000000000000000000000100000000000500000000000,
|
|
000000000000000000000000000000000000000000800000,
|
|
000000000000000000000000000000000000000000000000,
|
|
100000000000000000000000100000000000000000000000,
|
|
100000000000000000000000000000000000000000000000,
|
|
100000000000000000100000000000000000100000000000,
|
|
000000000000000000000000000000000000000000000000,
|
|
100000000000000000100000000000000000500000000000,
|
|
000000000000000000800000000000000000000000000000,
|
|
#BPMCHANGE 188.74
|
|
#SCROLL 1.00667585038
|
|
200000000000000000200000000000000000000000000000,
|
|
#BPMCHANGE 187.93
|
|
#SCROLL 1.01101473953
|
|
000000000000000000000000000000000000000000000000,
|
|
200000000000000000200000000000000000000000000000,
|
|
#BPMCHANGE 195.63
|
|
#SCROLL 0.97122118284
|
|
000000000000000000000000000000000000000000000000,
|
|
#BPMCHANGE 190
|
|
#SCROLL 1
|
|
100000000000000000100000000000000000100000000000,
|
|
000000000000000000000000000000000000000000000000,
|
|
100000000000000000100000000000000000500000000000,
|
|
000000000000000000800000000000000000000000000000,
|
|
200000000000000000200000000000000000000000000000,
|
|
000000000000000000000000000000000000000000000000,
|
|
200000000000000000200000000000000000000000000000,
|
|
000000000000000000000000000000000000000000000000,
|
|
|
|
#GOGOSTART
|
|
100000000000000000000000000000000000100000000000,
|
|
100000000000000000000000100000000000100000000000,
|
|
100000000000000000000000000000000000100000000000,
|
|
100000000000000000000000100000000000100000000000,
|
|
100000000000000000000000200000000000000000000000,
|
|
100000000000000000000000200000000000000000000000,
|
|
100000000000000000000000200000000000000000000000,
|
|
300000000000000000000000300000000000300000000000,
|
|
300000000000000000000000000000000000100000000000,
|
|
100000000000000000000000200000000000000000000000,
|
|
100000000000000000000000000000000000100000000000,
|
|
100000000000000000000000200000000000000000000000,
|
|
100000000000000000000000000000000000100000000000,
|
|
100000000000000000000000200000000000000000000000,
|
|
100000000000000000000000200000000000000000000000,
|
|
100000000000000000000000100000000000100000000000,
|
|
700000000000000000000000000000000000000000000000,
|
|
000000000000000000800000000000000000000000000000,
|
|
|
|
#GOGOEND
|
|
|
|
|
|
#END
|
|
|