Files
2023-06-15 19:15:39 -05:00

293 lines
12 KiB
Plaintext
Raw Permalink Blame History

This file contains ambiguous Unicode characters
This file contains Unicode characters that might be confused with other characters. If you think that this is intentional, you can safely ignore this warning. Use the Escape button to reveal them.
//TJADB Project
TITLE:Advance Adventure
TITLEJA:アドバンス・アドベンチャー~Advance Adventure~
SUBTITLE:--GARDEN/Pokémon the Series: Ruby and Sapphire
BPM:168
WAVE:Advance Adventure.ogg
OFFSET:-6.501
DEMOSTART:50.739
BGMOVIE:Advance Adventure.ogg
COURSE:Oni
LEVEL:7
BALLOON:5,5,6,8,13
SCOREINIT:840
SCOREDIFF:200
#START
300000000000100000200000000000200000000000300000,
000000100000200000000000200000000000200000000000,
300000000000100000200000000000200000000000300000,
000000100000200000000000200000000000000000000000,
100000000000100000100000200000100000100100100000,
100000200000100000700000000000000000000000800000,
200000000000200000200000100000200000200200200000,
200000100000200000700000000000000000000000800000,
300000000000100000200000000000200000000000300000,
000000100000200000000000200000000000200000000000,
300000000000100000200000000000200000000000300000,
000000100000200000000000200000000000000000000000,
100000000000100000000000100100100000100000100000,
000000200000200200200000000000300000000000300000,
000000000000000000000000100100100000100000200000,
100100100000200000000000100100100000100000200000,
100100100000200000700000000000000000000000800000,
000000100000200000200000000000300000000000300000,
000000000000000000000000100000100000200000200000,
100000100000200200200000000000100000000000100000,
100100100000200000200200200000100000700000000000,
000000000000000000000000800000000000100000000000,
200200200000100000000000100000100000200000000000,
100000100000200000000000500000000000000000000008,
000000000000000000000000100000100000200000000000,
100000100000200000000000500000000000000000000008,
000000000000000000000000100000100000200000000000,
100000100000200000000000100000100100100000000000,
100000100000200000100000100000200000000000000000,
100000100000200000100000100000200000000000000000,
100100100000100000300000000000200000400000000000,
300000000000200000200000000000100000100000000000,
300000000000200000200000000000100000100000000000,
300000000000200000200000000000000000100000100000,
000000100000000000200000100000000000100000200000,
000000000000000000000000200000100000200000100100,
100000100000200000100000200000200000000000000000,
100000200000100000200200200000200000100000200000,
100000200000200200200000100000100100100000100000,
300000000000200200200200200000000000000000000000,
300000000000200200200200200000000000000000000000,
300000000000200200200200200000000000100000100000,
000000100000000000200200200000100000200000100000,
000000000000000000000000200000100000200000100100,
100000100000200000100000200000200000000000000000,
100000200000100000200200200000200000100000200000,
100000200000200200200000100000100100100000000000,
100000200000100000200200200000200000100000200000,
100000200000200200200000100000100100100000100000,
700000000000000000000000000000000000000000000000,
000000000000000000000000000000000000800000000000,
300000000000100000200000000000200000000000300000,
000000100000200000000000200000000000000000000000,
300000000000100000200000000000200000000000300000,
000000100000200000000000200000000000300000300000,
#END
COURSE:Hard
LEVEL:4
BALLOON:12,12,15,15,20
SCOREINIT:940
SCOREDIFF:240
#START
100000000000100000100000000000200000000000100000,
000000100000100000000000200000000000200000000000,
100000000000100000100000000000200000000000100000,
000000100000100000000000200000000000000000000000,
100000000000100000000000100000000000200000000000,
200000000000000000700000000000000000000800000000,
100000000000100000000000100000000000200000000000,
200000000000000000700000000000000000000800000000,
100000000000100000100000000000200000000000100000,
000000100000100000000000200000000000200000000000,
100000000000100000100000000000200000000000100000,
000000100000100000000000200000000000000000000000,
100000100000100000000000200000200000200000000000,
100000100000200000200000000000300000000000300000,
000000000000000000000000100000100000200000000000,
100000100000200000000000100000100000200000000000,
100000100000100000700000000000000000000800000000,
000000100000100000200000000000300000000000300000,
000000000000000000000000100000100000200000000000,
100000100000200000000000000000100000000000100000,
200000000000100000200000000000100000700000000000,
000000000800000000000000000000300000000000000000,
300000000000000000000000100000100000200000000000,
100000100000200000000000500000000800000000000000,
100000000000100000100000200000000000100000100000,
200000000000500000000000000800000000000000000000,
100000000000100000100000200000000000100000100000,
200000000000500000000000000800000000000000000000,
100000000000000010000000100000002000000000000000,
100000100000200000000000100000100000200000000000,
200000000000500000000000000000000800000000000000,
100000000000000010000000100000002000000000000000,
100000100000200000000000100000100000200000000000,
100000000000100000000000200200200000000000000000,
100000000000100000000000200200200000000000000000,
100000000000100000100000000000200200200000000000,
300000000000200000200000200000000000100000000000,
300000000000200000200000200000000000100000000000,
300000000000200000200000200000000000100000100000,
000000100000000000000000000000000000000000000000,
000000000000000000000000100000200000100000100000,
000000100000000000100000100000200000000000000000,
100000200000100000100000000000100000000000100000,
100000200000000000100000100000200000000000000000,
300000000000200000200000200000000000100000000000,
300000000000200000200000200000000000100000000000,
300000000000200000200000200000000000100000100000,
000000100000000000000000000000000000000000000000,
000000000000000000000000100000200000100000200000,
000000100000000000100000100000200000000000000000,
100000200000100000200000000000100000000000100000,
200000100000000000100000200000100000000000000000,
100000200000100000200000000000100000000000100000,
200000100000000000100000200000100000000000000000,
700000000000000000000000000000000000000000000000,
000000800000000000000000000000000000000000000000,
100000000000100000100000000000200000000000100000,
000000100000100000000000200000000000000000000000,
100000000000100000100000000000200000000000100000,
000000100000100000000000200000000000300000300000,
#END
COURSE:Normal
LEVEL:4
SCOREINIT:1350
SCOREDIFF:440
#START
100000000000000000100000000000000000000000100000,
000000000000100000000000100000000000000000000000,
100000000000000000100000000000000000000000100000,
000000000000100000000000100000000000000000000000,
300000000000000000000000300000000000000000000000,
100000000000000000100000000000000000000000000000,
300000000000000000000000300000000000000000000000,
100000000000000000100000000000000000000000000000,
100000000000000000100000000000000000000000100000,
000000000000100000000000100000000000000000000000,
100000000000000000100000000000000000000000100000,
000000000000100000000000100000000000000000000000,
100000000000000000000000100000000000000000000000,
100000000000000000000000000000300000000000300000,
000000000000000000000000100000000000100000000000,
100000000000100000000000000000000000100000000000,
100000100000000000500000000000000000000000800000,
000000000000000000000000000000300000000000300000,
000000000000000000000000100000000000100000000000,
100000000000100000000000000000100000000000100000,
100000000000100000100000000000100000100000000000,
000000000000000000000000000000000000100000000000,
200000000000000000000000100000000000000000000000,
100000000000100000000000100000100000000000000000,
000000000000000000000000100000000000000000000000,
100000000000100000000000100000100000000000000000,
000000000000000000000000100000000000000000000000,
100000000000100000000000100000100000000000000000,
100000000000100000000000200000200000000000000000,
100000000000100000000000200000200000000000000000,
100000000000000000100000000000000000000000000000,
500000000000000000800000000000000000100000000000,
500000000000000000800000000000000000100000000000,
500000000000000000800000000000000000100000100000,
000000100000000000000000000000000000200000200000,
000000000000000000000000100000000000100000100000,
000000000000000000100000000000100000000000000000,
100000000000100000100000000000000000000000100000,
000000100000000000100000000000100000000000000000,
500000000000000000800000000000000000200000000000,
500000000000000000800000000000000000200000000000,
500000000000000000800000000000000000100000100000,
000000100000000000000000000000000000200000200000,
000000000000000000000000100000000000100000100000,
000000000000000000100000000000100000000000000000,
100000000000100000100000000000000000000000100000,
000000100000000000100000000000100000000000000000,
100000000000100000100000000000000000000000100000,
000000100000000000100000000000100000000000000000,
500000000000000000000000000000000000000000000000,
000000800000000000000000000000000000000000000000,
100000000000000000100000000000000000000000100000,
000000000000100000000000100000000000000000000000,
100000000000000000100000000000000000000000100000,
000000000000100000000000100000000000100000100000,
#END
COURSE:Easy
LEVEL:4
SCOREINIT:1380
SCOREDIFF:550
#START
100000000000000000000000000000000000000000100000,
000000000000100000000000100000000000000000000000,
100000000000000000000000000000000000000000100000,
000000000000100000000000100000000000000000000000,
100000000000000000000000000000000000100000000000,
100000000000000000000000000000000000000000000000,
100000000000000000000000000000000000100000000000,
100000000000000000000000000000000000000000000000,
100000000000000000000000000000000000000000100000,
000000000000100000000000100000000000000000000000,
100000000000000000000000000000000000000000100000,
000000000000100000000000100000000000000000000000,
100000000000000000000000100000000000000000000000,
100000000000000000000000000000300000000000300000,
000000000000000000000000100000000000000000000000,
100000000000000000000000100000000000100000000000,
100000000000000000500000000000000000000000800000,
000000000000000000000000000000300000000000300000,
000000000000000000000000100000000000000000000000,
100000000000100000000000000000000000100000000000,
000000000000100000000000100000000000500000000000,
000000000000000000800000000000000000000000000000,
000000000000000000000000100000000000000000000000,
100000000000100000000000100000000000000000000000,
000000000000000000000000100000000000000000000000,
100000000000100000000000100000000000000000000000,
000000000000000000000000100000000000000000000000,
100000000000100000000000100000000000000000000000,
100000000000100000000000100000000000000000000000,
100000000000100000000000100000000000000000000000,
000000000000000000000000000000000000000000000000,
300000000000000000000000200000000000000000000000,
300000000000000000000000200000000000000000000000,
300000000000000000000000200000000000000000000000,
300000000000000000000000000000000000000000000000,
000000000000000000000000100000000000100000000000,
000000000000000000200000000000200000000000000000,
100000000000100000000000000000000000000000100000,
000000000000000000200000000000200000000000000000,
100000000000000000000000100000000000100000000000,
100000000000000000000000100000000000100000000000,
100000000000000000000000100000000000100000000000,
100000000000000000000000000000000000000000000000,
000000000000000000000000100000000000100000000000,
000000000000000000200000000000200000000000000000,
100000000000100000000000000000000000000000200000,
000000200000000000000000000000100000000000000000,
100000000000100000000000000000000000000000200000,
000000200000000000000000000000100000000000000000,
500000000000000000000000000000000000000000000000,
000000800000000000000000000000000000000000000000,
100000000000000000000000000000000000000000100000,
000000000000100000000000100000000000000000000000,
100000000000000000000000000000000000000000100000,
000000000000100000000000100000000000100000100000,
#END