Files
2023-06-15 19:15:39 -05:00

355 lines
15 KiB
Plaintext

//TJADB Project
TITLE:After Dark
TITLEJA:アフターダーク
SUBTITLE:--ASIAN KUNG-FU GENERATION/BLEACH
SUBTITLEJA:「BLEACH」主題曲
BPM:191
WAVE:After Dark.ogg
OFFSET:-0.512
DEMOSTART:48.221
COURSE:Oni
LEVEL:8
SCOREINIT:590
SCOREDIFF:140
#START
100000000000200000000000100000100000000000200000,
000000100000200000000000000000100100200000000000,
100000000000200000000000100000100000000000200000,
100000100000200000000000100000100000200000100000,
100000000000200000000000100000100000000000200000,
100000100000200000000000000100100100200000000000,
100000000000200000000000100000100000000000200000,
000000100000200000000000100000100000200000100000,
100000000000200000000000100000100000000000200000,
000000100000200000000100100100100100200000000000,
100000000000200000000000100000100000200000100000,
000000100000200000000000100000100000200000100000,
100000000000200000000000100000100000200000100000,
000000100000200000000000100000100000200000000000,
100000100100100000200000100000100000100000200000,
100000100100100000200000100000100000100000000000,
100000100100100000200000100000100000100000200000,
100000100100100000200000100000200000200000000000,
500000000000000000000000000000000000000000000008,
000000000000100100100000100100100000100100100000,
500000000000000000000000000000000000000000000008,
000000000000000000000000000000000000000000000000,
100000100100100000200000100000100000200000200000,
100000100100100000200000100000200000100000100000,
100000100100100000200000100000100000200000200000,
100000100100100000200200200000200000200000000000,
500000000000000000000000000000000000000000000008,
000000000000000000000000200200200000200200200000,
500000000000000000000000000000000000000000000008,
000000000000000000000000000000000000000000000000,
100100100000200000100100100000200000100100100000,
200000100100100000200000300000200000300000000000,
100100100000200000100100100000200000100100100000,
000000100000100000200000100000100000200000000000,
100100100000200000100100100000200000100100100000,
200000100100100000200000300000200000300000000000,
100000100000100000200000100000100000200000100000,
100100100000200000200000100100100100100000000000,
#GOGOSTART
300000000000300000000000300000000000300000000000,
100000100000200200200000100000100000200000200000,
300000000000300000000000300000000000300000000000,
100000100000200000200000100100100100100000000000,
300000000000300000000000300000000000300000000000,
100000100000200200200000100000100000200000000000,
100100100000200000100100100000200000100000200000,
100100100000200000100100100000200000100000200000,
300000000000300000000000300000000000300000000000,
100000100000200200200000100000100000200000200000,
300000000000300000000000300000000000300000000000,
100000100000200000200000100100100100100000000000,
300000000000300000000000300000000000300000000000,
100000100000200200200000100000100000200000000000,
100100100000200000100100100000200000100000200000,
100000000000100000000000200000000000200000000000,
100000100000200000200000100000100000200000200000,
100000100000200000200000100000100000200000200000,
100100100000200200200000100100100000200200200000,
100100100000200200200000100100100000200200200000,
100100100100200000200000100100100100200000200000,
100100100100200000200000100100100100200000200000,
300000400000300000400000300000400000300000400000,
300000000000300000000000300000000000300000000000,
#GOGOEND
100000000000200000000000100100100000000000200000,
000000100000200000000000100000100000200000000000,
100000000000200000000000100100100000000000200000,
000000100000200000000000100000100100200000000000,
100000000000200000000000100100100000000000200000,
000000100000200000000000100000100000200000000000,
300000300000000000300000300000000000300000300000,
000000300000300000000000000000000000000000000000,
#END
COURSE:Hard
LEVEL:5
SCOREINIT:810
SCOREDIFF:200
#START
000000000000000000000000000000000000000000000000,
000000000000000000000000000000000000000000000000,
100000100000000000000000100000100000000000000000,
100000100000000000000000100000100000000000000000,
100000100000000000000000100000100000000000000000,
100000100000000000000000100000100000000000000000,
100000100000000000000000100000100000000000000000,
100000100000000000000000100000100000000000000000,
100000100000000000000000100000100000000000000000,
100000100000000000000000100000100000000000000000,
100000000000100000100000100000000000000000100000,
000000000000200000000000200000000000200000000000,
100000000000100000100000100000000000000000100000,
000000000000000000000000000000000000000000000000,
100000000000200000200000200000000000200000000000,
000000000000200000200000000000000000000000000000,
100000000000200000200000200000000000200000000000,
000000000000200000200000000000000000000000000000,
500000000000000000000000000000000000000000800000,
000000000000100000000000100000000000100000000000,
500000000000000000000000000000000000000000800000,
000000000000000000000000000000000000000000000000,
100000000000200000200000200000000000200000000000,
000000000000200000200000000000000000000000000000,
100000000000200000200000200000000000200000000000,
000000000000200000200000000000000000000000000000,
500000000000000000000000000000000000000000800000,
000000000000000000000000200000000000200000000000,
500000000000000000000000000000000000000000800000,
000000000000000000000000000000000000000000000000,
100000100000000000100000100000000000100000100000,
000000100000100000000000100000000000000000000000,
100000100000000000100000100000000000100000100000,
000000000000000000000000000000000000000000000000,
100000100000000000100000100000000000100000100000,
000000100000100000000000100000000000100000000000,
100000000000000000000000100000100000100000000000,
300000000000000000000000200200200000200000000000,
#GOGOSTART
300000000000300000000000300000000000300000000000,
100000200000100000200000100000000000000000000000,
300000000000300000000000300000000000300000000000,
100000200000100000200000100000000000000000000000,
300000000000300000000000300000000000300000000000,
100000200000100000200000100000000000200000000000,
500000000000000000000000000000000000000000800000,
000000000000000000000000000000000000000000000000,
400000000000400000000000400000000000400000000000,
200000100000200000100000200000000000000000000000,
400000000000400000000000400000000000400000000000,
200000100000200000100000200000000000000000000000,
400000000000400000000000400000000000400000000000,
200000100000200000100000200000000000000000000000,
500000000000000000000000000000000000000000800000,
000000000000000000000000000000000000000000000000,
100000000000100000100000100000000000100000000000,
100000000000200000200000200000000000000000000000,
100000000000100000100000100000000000100000000000,
100000000000200000200000200000000000000000000000,
100000000000100000100000100000000000100000000000,
100000100000100000000000100000100000100000000000,
300000000000300000000000300000000000300000000000,
300000000000300000000000300000000000300000000000,
#GOGOEND
300000000000000000000000000000000000000000000000,
000000000000000000000000000000000000000000000000,
100000100000000000000000100000100000000000000000,
100000100000000000000000100000100000000000000000,
100000100000000000000000100000100000000000000000,
100000100000000000000000100000100000000000000000,
300000300000000000300000300000000000300000300000,
000000300000300000000000000000000000000000000000,
#END
COURSE:Normal
LEVEL:4
SCOREINIT:1000
SCOREDIFF:290
#START
000000000000000000000000000000000000000000000000,
000000000000000000000000000000000000000000000000,
100000100000000000000000000000000000000000000000,
100000100000000000000000000000000000000000000000,
100000100000000000000000000000000000000000000000,
100000100000000000000000000000000000000000000000,
100000100000000000000000100000000000000000000000,
100000100000000000000000100000000000000000000000,
100000100000000000000000100000000000000000000000,
100000100000000000000000100000000000000000000000,
100000000000100000000000100000000000000000000000,
100000000000000000000000000000000000000000000000,
100000000000100000000000100000000000000000000000,
100000000000000000000000000000000000000000000000,
100000000000200000000000200000000000200000000000,
000000000000200000000000000000000000000000000000,
100000000000200000000000200000000000200000000000,
000000000000200000000000000000000000000000000000,
500000000000000000000000000000000000000000800000,
000000000000000000000000100000000000000000000000,
500000000000000000000000000000000000000000800000,
000000000000000000000000000000000000000000000000,
100000000000200000000000200000000000200000000000,
000000000000200000000000000000000000000000000000,
100000000000200000000000200000000000200000000000,
000000000000200000000000000000000000000000000000,
500000000000000000000000000000000000000000800000,
000000000000000000000000200000000000000000000000,
500000000000000000000000000000000000000000800000,
000000000000000000000000000000000000000000000000,
100000000000000000100000000000000000100000000000,
000000100000000000000000100000000000000000000000,
100000000000000000100000000000000000100000000000,
000000000000000000000000000000000000000000000000,
100000000000000000100000000000000000100000000000,
000000100000000000000000100000000000000000000000,
100000000000000000000000100000000000000000000000,
300000000000000000000000000000000000000000000000,
#GOGOSTART
100000000000100000000000100000000000100000000000,
100000000000100000000000100000000000000000000000,
100000000000100000000000100000000000100000000000,
100000000000100000000000100000000000000000000000,
100000000000100000000000100000000000100000000000,
100000000000100000000000100000000000000000000000,
500000000000000000000000000000000000000000800000,
000000000000000000000000000000000000000000000000,
200000000000200000000000200000000000200000000000,
200000000000200000000000200000000000000000000000,
200000000000200000000000200000000000200000000000,
200000000000200000000000200000000000000000000000,
200000000000200000000000200000000000200000000000,
200000000000200000000000200000000000000000000000,
500000000000000000000000000000000000000000800000,
000000000000000000000000000000000000000000000000,
100000000000100000000000100000000000100000000000,
000000000000200000000000200000000000000000000000,
100000000000100000000000100000000000100000000000,
000000000000200000000000200000000000000000000000,
100000000000100000000000100000000000100000000000,
000000000000200000000000200000000000000000000000,
300000000000000000000000300000000000000000000000,
300000000000300000000000300000000000300000000000,
#GOGOEND
300000000000000000000000000000000000000000000000,
000000000000000000000000000000000000000000000000,
100000100000000000000000100000000000000000000000,
100000100000000000000000100000000000000000000000,
100000100000000000000000100000000000000000000000,
100000100000000000000000100000000000000000000000,
300000000000000000300000000000000000300000000000,
000000300000000000000000000000000000000000000000,
#END
COURSE:Easy
LEVEL:4
SCOREINIT:850
SCOREDIFF:290
#START
000000000000000000000000000000000000000000000000,
000000000000000000000000000000000000000000000000,
100000000000000000000000100000000000000000000000,
100000000000000000000000000000000000000000000000,
100000000000000000000000100000000000000000000000,
100000000000000000000000000000000000000000000000,
200000000000000000000000200000000000000000000000,
200000000000000000000000000000000000000000000000,
200000000000000000000000200000000000000000000000,
200000000000000000000000000000000000000000000000,
100000000000000000000000100000000000000000000000,
100000000000000000000000000000000000000000000000,
100000000000000000000000100000000000000000000000,
100000000000000000000000000000000000000000000000,
100000000000100000000000100000000000000000000000,
100000000000000000000000000000000000000000000000,
100000000000100000000000100000000000000000000000,
100000000000000000000000000000000000000000000000,
500000000000000000000000000000000000000000800000,
000000000000000000000000000000000000000000000000,
500000000000000000000000000000000000000000800000,
000000000000000000000000000000000000000000000000,
100000000000100000000000100000000000000000000000,
100000000000000000000000000000000000000000000000,
100000000000100000000000100000000000000000000000,
100000000000000000000000000000000000000000000000,
500000000000000000000000000000000000000000800000,
000000000000000000000000000000000000000000000000,
500000000000000000000000000000000000000000800000,
000000000000000000000000000000000000000000000000,
100000000000000000000000100000000000000000000000,
100000000000000000000000100000000000000000000000,
100000000000000000000000100000000000000000000000,
100000000000000000000000000000000000000000000000,
200000000000000000000000200000000000000000000000,
200000000000000000000000200000000000000000000000,
100000000000000000000000100000000000000000000000,
100000000000000000000000000000000000000000000000,
#GOGOSTART
100000000000100000000000100000000000000000000000,
100000000000100000000000100000000000000000000000,
100000000000100000000000100000000000000000000000,
100000000000100000000000100000000000000000000000,
100000000000100000000000100000000000000000000000,
100000000000100000000000100000000000000000000000,
500000000000000000000000000000000000000000800000,
000000000000000000000000000000000000000000000000,
200000000000200000000000200000000000000000000000,
200000000000200000000000200000000000000000000000,
200000000000200000000000200000000000000000000000,
200000000000200000000000200000000000000000000000,
200000000000200000000000200000000000000000000000,
200000000000200000000000200000000000000000000000,
500000000000000000000000000000000000000000800000,
000000000000000000000000000000000000000000000000,
100000000000100000000000100000000000000000000000,
100000000000000000000000100000000000000000000000,
100000000000100000000000100000000000000000000000,
100000000000000000000000100000000000000000000000,
100000000000100000000000100000000000000000000000,
100000000000000000000000100000000000000000000000,
300000000000000000000000300000000000000000000000,
300000000000300000000000300000000000300000000000,
#GOGOEND
000000000000000000000000000000000000000000000000,
000000000000000000000000000000000000000000000000,
100000000000000000000000100000000000000000000000,
100000000000000000000000100000000000000000000000,
100000000000000000000000100000000000000000000000,
100000000000000000000000100000000000000000000000,
100000000000000000000000000000000000000000000000,
#END