Files
2023-06-15 19:15:39 -05:00

946 lines
20 KiB
Plaintext
Raw Permalink Blame History

This file contains ambiguous Unicode characters
This file contains Unicode characters that might be confused with other characters. If you think that this is intentional, you can safely ignore this warning. Use the Escape button to reveal them.
//TJADB Project
TITLE:Ajapaa
TITLEJA:あじゃぱー
SUBTITLE:--Kohei Tanaka feat. Koichi Yamadera/Majime ni Fumajime: Kaiketsu Zorori
BPM:164
WAVE:Ajapaa.ogg
OFFSET:-1.672
DEMOSTART:49.964
COURSE:Oni
LEVEL:4
STYLE:Double
SCOREINIT:950
SCOREDIFF:210
#START P1
000000000000000000000000000000000000000000000000,
100000000000000000000000000000000000000000000000,
100000000000000000000000000000000000000000000000,
100000000000000000000000100000000000000000000000,
100000000000100000000000100000100000100100100100,
100000000000200000100000000000000000200000000000,
100000000000200000100000000000000000200000000000,
100000100000200000200000100000000000200000100000,
000000100000100000000000200000200200200000000000,
100000000000200000100000000000100000200000000000,
100000000000200000100000000000100000200000000000,
100000100000200000200000100000000000200000100000,
000000200000200000000000100000100000100100100100,
100000000000000000100000000000000000100000100000,
000000200000000000100000100000200000200000000000,
100000000000000000100000000000000000100000100000,
000000200000000000100000100000200000200000000000,
100000000000000000100000000000100000100000100000,
100000000000000000100000000000000000100000000000,
100000000000000000100000000000100000100000100000,
100000100100100000100000000000200000200000000000,
100000100100100000100000000000200000200000000000,
100000100100100000100000300000000400000000300000,
500000000000000000000000000000000008000000000000,
300000000000000000000000000000000000000000000000,
#GOGOSTART
300000000000000000000000300000000000000000300000,
000000200200200000000000100000100000200000000000,
300000000000000000000000300000000000000000300000,
000000200200200000000000100000000000200000000000,
100000200200200000200000100000100000200000100000,
000000200200200000200000100000100000200000100000,
000000200200200000200000100000100000200000300000,
000000200200200000100000100000200200200000200000,
300000000000000000000000300000000000000000300000,
000000200200200000000000100000100000200000000000,
300000000000000000000000300000000000000000300000,
000000000000000000000000000000000000000000000000,
300000000000300000000000400000000000400000000000,
300000000000400000000000100000100000100000100000,
000000100000100000100000100000100000100000100000,
#GOGOEND
1,
2,
500000000000000000000000000008000000000000000000,
01,
02,
500000000000000000000000000008000000000000000000,
3,
4,
600000000000000000000000000008000000000000000000,
1000100010101110,
#GOGOSTART
300000000000000000000000300000000000000000300000,
000000200200200000000000100000100000200000000000,
300000000000000000000000300000000000000000300000,
000000000000000000000000000000000000000000000000,
300000000000300000000000400000000000400000000000,
300000000000400000000000100000100000100000100000,
000000100000100000100000100000100000100000100000,
300000000000300000000000300000000000000000000000,
#GOGOEND
#END
#START P2
000000000000000000000000000000000000000000000000,
100000000000000000000000000000000000000000000000,
100000000000000000000000000000000000000000000000,
100000000000000000000000100000000000000000000000,
100000000000100000000000100000100000100100100100,
100000000000200000100000000000000000200000000000,
100000000000200000100000000000000000200000000000,
100000100000200000200000100000000000200000100000,
000000100000100000000000200000200200200000000000,
100000000000200000100000000000100000200000000000,
100000000000200000100000000000100000200000000000,
100000100000200000200000100000000000200000100000,
000000200000200000000000100000100000100100100100,
100000000000000000100000000000000000100000100000,
000000200000000000100000100000200000200000000000,
100000000000000000100000000000000000100000100000,
000000200000000000100000100000200000200000000000,
100000000000000000100000000000100000100000100000,
100000000000000000100000000000000000100000000000,
100000000000000000100000000000100000100000100000,
100000100100100000100000000000200000200000000000,
100000100100100000100000000000200000200000000000,
100000100100100000100000300000000400000000300000,
500000000000000000000000000000000008000000000000,
300000000000000000000000000000000000000000000000,
#GOGOSTART
300000000000000000000000300000000000000000300000,
000000200200200000000000100000100000200000000000,
300000000000000000000000300000000000000000300000,
000000200200200000000000100000000000200000000000,
100000200200200000200000100000100000200000100000,
000000200200200000200000100000100000200000100000,
000000200200200000200000100000100000200000300000,
000000200200200000100000100000200200200000200000,
300000000000000000000000300000000000000000300000,
000000200200200000000000100000100000200000000000,
300000000000000000000000300000000000000000300000,
000000000000000000000000000000000000000000000000,
300000000000300000000000400000000000400000000000,
300000000000400000000000100000100000100000100000,
000000100000100000100000100000100000100000100000,
#GOGOEND
01,
02,
500000000000000000000000000008000000000000000000,
1,
2,
500000000000000000000000000008000000000000000000,
03,
04,
600000000000000000000000000008000000000000000000,
1000100010101110,
#GOGOSTART
300000000000000000000000300000000000000000300000,
000000200200200000000000100000100000200000000000,
300000000000000000000000300000000000000000300000,
000000000000000000000000000000000000000000000000,
300000000000300000000000400000000000400000000000,
300000000000400000000000100000100000100000100000,
000000100000100000100000100000100000100000100000,
300000000000300000000000300000000000000000000000,
#GOGOEND
#END
STYLE:Single
SCOREINIT:870
SCOREDIFF:210
#START
000000000000000000000000000000000000000000000000,
100000000000000000000000000000000000000000000000,
100000000000000000000000000000000000000000000000,
100000000000000000000000100000000000000000000000,
100000000000100000000000100000100000100100100100,
100000000000200000100000000000000000200000000000,
100000000000200000100000000000000000200000000000,
100000100000200000200000100000000000200000100000,
000000100000100000000000200000200200200000000000,
100000000000200000100000000000100000200000000000,
100000000000200000100000000000100000200000000000,
100000100000200000200000100000000000200000100000,
000000200000200000000000100000100000100100100100,
100000000000000000100000000000000000100000100000,
000000200000000000100000100000200000200000000000,
100000000000000000100000000000000000100000100000,
000000200000000000100000100000200000200000000000,
100000000000000000100000000000100000100000100000,
100000000000000000100000000000000000100000000000,
100000000000000000100000000000100000100000100000,
100000100100100000100000000000200000200000000000,
100000100100100000100000000000200000200000000000,
100000100100100000100000300000000400000000300000,
500000000000000000000000000000000008000000000000,
300000000000000000000000000000000000000000000000,
#GOGOSTART
300000000000000000000000300000000000000000300000,
000000200200200000000000100000100000200000000000,
300000000000000000000000300000000000000000300000,
000000200200200000000000100000000000200000000000,
100000200200200000200000100000100000200000100000,
000000200200200000200000100000100000200000100000,
000000200200200000200000100000100000200000300000,
000000200200200000100000100000200200200000200000,
300000000000000000000000300000000000000000300000,
000000200200200000000000100000100000200000000000,
300000000000000000000000300000000000000000300000,
000000000000000000000000000000000000000000000000,
300000000000300000000000400000000000400000000000,
300000000000400000000000100000100000100000100000,
000000100000100000100000100000100000100000100000,
#GOGOEND
100000000000000000000000200000000000000000000000,
100000000000000000000000200000000000000000000000,
500000000000000000000000000008000000000000000000,
100000000000000000000000200000000000000000000000,
100000000000000000000000200000000000000000000000,
500000000000000000000000000008000000000000000000,
300000000000000000000000400000000000000000000000,
300000000000000000000000400000000000000000000000,
600000000000000000000000000008000000000000000000,
100000000000100000000000100000100000100100100000,
#GOGOSTART
300000000000000000000000300000000000000000300000,
000000200200200000000000100000100000200000000000,
300000000000000000000000300000000000000000300000,
000000000000000000000000000000000000000000000000,
300000000000300000000000400000000000400000000000,
300000000000400000000000100000100000100000100000,
000000100000100000100000100000100000100000100000,
300000000000300000000000300000000000000000000000,
#GOGOEND
#END
COURSE:Hard
LEVEL:2
STYLE:Double
SCOREINIT:940
#START P1
,
1,
1,
11,
10101111,
10210020,
10210020,
10201021,
0111,
10210020,
10210020,
10201021,
0111,
10010010,
02011220,
10010010,
02011220,
10010010,
10010020,
10010020,
11110220,
11110220,
1010101010020010,
500000000000000000000000000000000008000000000000,
3,
#GOGOSTART
30030030,
,
30003003,
0022,
11101011,
02201011,
02201003,
00201111,
0202,
00002220,
0202,
,
3344,
30401111,
0111,
#GOGOEND
1,
2,
500000000000000000000000000008000000000000000000,
01,
02,
500000000000000000000000000008000000000000000000,
3,
4,
600000000000000000000000000008000000000000000000,
10101111,
#GOGOSTART
30030030,
,
30003003,
,
3344,
30401111,
0111,
3330,
#GOGOEND
#END
#START P2
,
1,
1,
11,
10101111,
10210020,
10210020,
10201021,
0111,
10210020,
10210020,
10201021,
0111,
10010010,
02011220,
10010010,
02011220,
10010010,
10010020,
10010020,
11110220,
11110220,
1010101010020010,
500000000000000000000000000000000008000000000000,
3,
#GOGOSTART
00200200,
00002220,
0202,
0022,
11101011,
02201011,
02201003,
00201111,
30003003,
,
30003003,
,
3344,
30401111,
0111,
#GOGOEND
01,
02,
500000000000000000000000000008000000000000000000,
1,
2,
500000000000000000000000000008000000000000000000,
03,
04,
600000000000000000000000000008000000000000000000,
10101111,
#GOGOSTART
00200200,
00002220,
0202,
,
3344,
30401111,
0111,
3330,
#GOGOEND
#END
STYLE:Single
SCOREINIT:630
SCOREDIFF:220
#START
,
1,
1,
11,
10101111,
10210020,
10210020,
10201021,
0111,
10210020,
10210020,
10201021,
0111,
10010010,
02011220,
10010010,
02011220,
10010010,
10010020,
10010020,
11110220,
11110220,
1010101010020010,
500000000000000000000000000000000008000000000000,
3,
#GOGOSTART
30003003,
00002220,
30003003,
0022,
11101011,
02201011,
02201003,
00201111,
30003003,
00002220,
30003003,
,
3344,
30401111,
0111,
#GOGOEND
12,
12,
500000000000000000000000000000000008000000000000,
12,
12,
500000000000000000000000000000000008000000000000,
34,
34,
500000000000000000000000000000000008000000000000,
10101111,
#GOGOSTART
30003003,
00002220,
30003003,
,
3344,
30401111,
0111,
3330,
#GOGOEND
#END
COURSE:Normal
LEVEL:3
STYLE:Double
SCOREINIT:970
#START P1
,
1,
1,
11,
1111,
10010000,
10010000,
10001011,
0011,
10010000,
10010000,
10001011,
0011,
10010010,
01001000,
10010010,
01001000,
10010010,
10010000,
10010000,
10110000,
10110000,
1000000010010010,
500000000000000000000000000000000008000000000000,
3,
#GOGOSTART
30003003,
02,
30003003,
02,
10001001,
00101001,
00101001,
0110,
30003003,
02,
30003003,
,
3344,
30001111,
,
#GOGOEND
1,
2,
500000000000000000000000000008000000000000000000,
01,
02,
500000000000000000000000000008000000000000000000,
3,
4,
600000000000000000000000000008000000000000000000,
1111,
#GOGOSTART
30003003,
02,
30003003,
,
3344,
30001111,
,
3330,
#GOGOEND
#END
#START P2
,
1,
1,
11,
1111,
10010000,
10010000,
10001011,
0011,
10010000,
10010000,
10001011,
0011,
10010010,
01001000,
10010010,
01001000,
10010010,
10010000,
10010000,
10000220,
10000220,
1000000010010010,
500000000000000000000000000000000008000000000000,
3,
#GOGOSTART
30003003,
02,
30003003,
02,
10001001,
00101001,
00101001,
0110,
30003003,
02,
30003003,
,
3344,
30001111,
,
#GOGOEND
01,
02,
500000000000000000000000000008000000000000000000,
1,
2,
500000000000000000000000000008000000000000000000,
03,
04,
600000000000000000000000000008000000000000000000,
1111,
#GOGOSTART
30003003,
02,
30003003,
,
3344,
30001111,
,
3330,
#GOGOEND
#END
STYLE:Single
SCOREINIT:930
SCOREDIFF:260
#START
000000000000000000000000000000000000000000000000,
100000000000000000000000000000000000000000000000,
100000000000000000000000000000000000000000000000,
100000000000000000000000100000000000000000000000,
100000000000100000000000100000000000100000000000,
100000000000000000100000000000000000000000000000,
100000000000000000100000000000000000000000000000,
100000000000000000000000100000000000100000100000,
000000000000000000000000100000000000100000000000,
100000000000000000100000000000000000000000000000,
100000000000000000100000000000000000000000000000,
100000000000000000000000100000000000100000100000,
000000000000000000000000100000000000100000000000,
100000000000000000100000000000000000100000000000,
000000100000000000000000100000000000000000000000,
100000000000000000100000000000000000100000000000,
000000100000000000000000100000000000000000000000,
100000000000000000100000000000000000100000000000,
100000000000000000100000000000000000000000000000,
100000000000000000100000000000000000000000000000,
100000000000000000100000000000000000200000000000,
100000000000000000100000000000000000200000000000,
100000000000000000000000100000000100000000100000,
500000000000000000000000000000000008000000000000,
300000000000000000000000000000000000000000000000,
#GOGOSTART
300000000000000000000000300000000000000000300000,
000000000000000000000000200000000000000000000000,
300000000000000000000000300000000000000000300000,
000000000000000000000000200000000000000000000000,
100000000000000000000000100000000000000000100000,
000000000000100000000000100000000000000000100000,
000000000000100000000000100000000000000000100000,
000000000000100000000000100000000000000000000000,
300000000000000000000000300000000000000000300000,
000000000000000000000000200000000000000000000000,
300000000000000000000000300000000000000000300000,
000000000000000000000000000000000000000000000000,
300000000000300000000000400000000000400000000000,
300000000000000000000000100000100000100000100000,
000000000000000000000000000000000000000000000000,
#GOGOEND
100000000000000000000000200000000000000000000000,
100000000000000000000000200000000000000000000000,
500000000000000000000000000008000000000000000000,
100000000000000000000000200000000000000000000000,
100000000000000000000000200000000000000000000000,
500000000000000000000000000008000000000000000000,
300000000000000000000000400000000000000000000000,
300000000000000000000000400000000000000000000000,
600000000000000000000000000008000000000000000000,
100000000000100000000000100000000000100000000000,
#GOGOSTART
300000000000000000000000300000000000000000300000,
000000000000000000000000200000000000000000000000,
300000000000000000000000300000000000000000300000,
000000000000000000000000000000000000000000000000,
300000000000300000000000400000000000400000000000,
300000000000000000000000100000100000100000100000,
000000000000000000000000000000000000000000000000,
300000000000300000000000300000000000000000000000,
#GOGOEND
#END
COURSE:Easy
LEVEL:3
STYLE:Double
SCOREINIT:290
#START P1
,
1,
1,
11,
11,
10010000,
10010000,
10001001,
,
10010000,
10010000,
10001001,
,
10010000,
10010000,
10010000,
10010000,
10020000,
10020000,
10020000,
10010000,
10010000,
10010000,
500000000000000000000000000000000008000000000000,
3,
#GOGOSTART
30003003,
02,
300030030,
02,
10001001,
00001001,
000010010,
0110,
30003003,
02,
30003003,
,
1122,
10001001,
,
#GOGOEND
1,
2,
500000000000000000000000000008000000000000000000,
01,
02,
500000000000000000000000000008000000000000000000,
3,
4,
600000000000000000000000000008000000000000000000,
11,
#GOGOSTART
30003003,
02,
30003003,
,
1122,
10001001,
,
3330,
#GOGOEND
#END
#START P2
,
1,
1,
11,
11,
10010000,
10010000,
10001001,
,
10010000,
10010000,
10001001,
,
10010000,
10010000,
10010000,
10010000,
10020000,
10020000,
10020000,
10010000,
10010000,
10010000,
500000000000000000000000000000000008000000000000,
3,
#GOGOSTART
30003003,
02,
300030030,
02,
10001001,
00001001,
000010010,
0110,
30003003,
02,
30003003,
,
1122,
10001001,
,
#GOGOEND
01,
02,
500000000000000000000000000008000000000000000000,
1,
2,
500000000000000000000000000008000000000000000000,
03,
04,
600000000000000000000000000008000000000000000000,
11,
#GOGOSTART
30003003,
02,
30003003,
,
1122,
10001001,
,
3330,
#GOGOEND
#END
STYLE:Single
SCOREINIT:140
SCOREDIFF:380
#START
000000000000000000000000000000000000000000000000,
100000000000000000000000000000000000000000000000,
100000000000000000000000000000000000000000000000,
100000000000000000000000100000000000000000000000,
100000000000000000000000100000000000000000000000,
100000000000000000100000000000000000000000000000,
100000000000000000100000000000000000000000000000,
100000000000000000000000100000000000000000100000,
000000000000000000000000000000000000000000000000,
100000000000000000100000000000000000000000000000,
100000000000000000100000000000000000000000000000,
100000000000000000000000100000000000000000100000,
000000000000000000000000000000000000000000000000,
100000000000000000100000000000000000000000000000,
100000000000000000100000000000000000000000000000,
100000000000000000100000000000000000000000000000,
100000000000000000100000000000000000000000000000,
100000000000000000200000000000000000000000000000,
100000000000000000200000000000000000000000000000,
100000000000000000200000000000000000000000000000,
100000000000000000100000000000000000000000000000,
100000000000000000100000000000000000000000000000,
100000000000000000000000100000000000000000000000,
500000000000000000000000000000000008000000000000,
300000000000000000000000000000000000000000000000,
#GOGOSTART
300000000000000000000000300000000000000000300000,
000000000000000000000000200000000000000000000000,
300000000000000000000000300000000000000000300000,
000000000000000000000000200000000000000000000000,
100000000000000000000000100000000000000000100000,
000000000000000000000000100000000000000000100000,
000000000000000000000000100000000000000000100000,
000000000000100000000000100000000000000000000000,
300000000000000000000000300000000000000000300000,
000000000000000000000000200000000000000000000000,
300000000000000000000000300000000000000000300000,
000000000000000000000000000000000000000000000000,
100000000000100000000000200000000000200000000000,
100000000000000000000000100000000000000000100000,
000000000000000000000000000000000000000000000000,
#GOGOEND
100000000000000000000000200000000000000000000000,
100000000000000000000000200000000000000000000000,
500000000000000000000000000008000000000000000000,
100000000000000000000000200000000000000000000000,
100000000000000000000000200000000000000000000000,
500000000000000000000000000008000000000000000000,
300000000000000000000000400000000000000000000000,
300000000000000000000000400000000000000000000000,
600000000000000000000000000008000000000000000000,
100000000000000000000000100000000000000000000000,
#GOGOSTART
300000000000000000000000300000000000000000300000,
000000000000000000000000200000000000000000000000,
300000000000000000000000300000000000000000300000,
000000000000000000000000000000000000000000000000,
100000000000100000000000200000000000200000000000,
100000000000000000000000100000000000000000100000,
000000000000000000000000000000000000000000000000,
300000000000300000000000300000000000000000000000,
#GOGOEND
#END