Files
2023-06-15 19:15:39 -05:00

758 lines
29 KiB
Plaintext

//TJADB Project
TITLE:Anataboshi
TITLEJA:アナタボシ
SUBTITLE:--Yuya Saito feat. Milky Way/Kirarin☆Revolution
SUBTITLEJA:「きらりん☆レボリューション」より
BPM:94.5
WAVE:Anataboshi.ogg
OFFSET:-2.851
DEMOSTART:55.820
COURSE:Edit
LEVEL:8
BALLOON:4
SCOREINIT:660
SCOREDIFF:173
#START
100000000100200000100000202020100000200000000000,
100000000100200000100000100000200000100000000000,
100000000100200000100000100000200000100000200000,
100000000100200000100000500000000000000008000000,
#BPMCHANGE 189
100000000000100000200000100000000000100000100100,
100000000000100000200000100000000000100000100100,
100000000000100000200000100000200000100000000000,
100000200000100000000000100100100100200200200200,
100000000000100000200000100000000000100000100100,
100000000000100000200000100000000000100000100100,
100000000000100000200000100000200000100000000000,
100000200000100000000000700000000000800000000000,
100000000000200000100000100000000000100000100000,
200000000000200000100000200000000000100000200000,
100000000000200000100000200000100000200000000000,
300000000000300000000000300000000000000000000000,
100000000000100000000000100000200000100000000000,
100000100100200000100000100000200200100000200000,
100000000000100000000000100000200000100000000000,
100000100100200000100000200200200200200000000000,
100000000000200000100000100000000000100000100000,
200000000000200000100000200000000000100000200000,
100000000000200000100000200000100000200000000000,
300000000000300000000000300000000000000000000000,
100000000000100000000000100000200000100000000000,
100000100100200000100000100000200200100000200000,
100000000000100000000000100000200000100000000000,
100000100100200000100000200200200200200000000000,
100100100000200200200000100100100000200200200000,
100100200000100100200000100100200200100100200000,
100100100000200200200000100100100000200200200000,
200200100000200200100000200200100100200000000000,
100100100000200200200000100100100000200200200000,
100100200000100100200000100100200200100100200000,
100100100100200200200200100100100100200200200200,
100100200200100100200000300000000000600000000000,
000000000000000000000000000000000000000000000000,
000000000000000008000000000000000000300000000000,
#GOGOSTART
100000100100200000100000200000000000300000000000,
100000100200200000100000200000000000100000200200,
100000100100200000200200100000100100200000200200,
100000200100200000100000200000000000300000000000,
100000100100200000100000200000000000300000000000,
100000100200200000100000200000000000100000200200,
100000100100200000100000600000000000000000000000,
000000000000000000000008000000000000300000000000,
100000100100200000100000200000000000300000000000,
100000100200200000100000200000000000100000200200,
100000100100200000200200100000100100200000200200,
100000200100200000100000200000000000300000000000,
100000100100200000100000200000000000300000000000,
100000100200200000100000200000000000100000200200,
100000100200200000200200100000100200200000200200,
500000000000000000000008000000000000300000000000,
100100100100100000000000200200200200200000000000,
100100200200100100200200100100100100200200200200,
#GOGOEND
100000000000100000200000100000000000100000100100,
100000000000100000200000100000000000100000100100,
100000000000100000200000100000200000100000000000,
100000200000100000000000100100100100200200200200,
100000000000100000200000100000000000100000100100,
100000000000100000200000100000000000100000100100,
100000000000100000200000100000200000100000000000,
100000200000100000000000500000000000000000000000,
000000000000000000000000000000000000000000000000,
000000000008000000000000000000000000000000000000,
#END
COURSE:Oni
LEVEL:5
BALLOON:7,7,10
SCOREINIT:760
SCOREDIFF:210
#START
100000200200200000200000100100100000200000200000,
100000200200200000200000100100100000200000200200,
100000200200200000200000100100100000200000200000,
100000200200200000200000100100100000200200200200,
#BPMCHANGE 189
100000000000200000200000100000000000200000000000,
100000000000200000200000100000000000200000000000,
100000000000200000200000100000000000200000000000,
100000100000200000000000100000100000200000200000,
100000000000200000200000100000000000200000000000,
100000000000200000200000100000000000200000000000,
100000000000200000200000100000000000200000000000,
100000100000200000000000300000000000000000000000,
200000000000100000100000100000000000100000100000,
200000000000100000100000200000000000100000100000,
200000000000100000100000100000100000100000000000,
200000100000100000000000200000000000000000000000,
200000000000200000000000200000100000200000000000,
200000100000100000000000100000100000100000000000,
200000000000200000000000200000100000200000000000,
200000100000100000100000100000000000000000000000,
200000000000100000100000100000000000100000100000,
200000000000100000100000200000000000100000100000,
200000000000100000100000100000100000100000000000,
200000100000100000000000200000000000000000000000,
200000000000200000000000200000100000200000000000,
200000100000100000000000100000100000100000000000,
200000000000200000000000200000100000200000000000,
200000100000100000100000100000000000000000000000,
100000200000100000000000100000200000100000000000,
100000200000100000200000100000200000100000000000,
200000100000200000000000200000100000200000000000,
200000100000200000100000200000000000000000000000,
100000200000100000000000100000200000100000000000,
100000200000100000200000100000200000100000000000,
200000100100100000000000200000100100100000000000,
200000100000100000100000200000000000500000000000,
000000000000000000000000000000000000000000000000,
000000000000000008000000000000000000200000000000,
#GOGOSTART
100000100000200000100000200000000000200000000000,
100000100000200000100000200000000000200000200000,
100000000000200000200000100000100000200000200000,
100000100100200000200000200000000000200000000000,
100000100000200000100000200000000000200000000000,
100000100000200000100000200000000000200000200000,
100000000000200000200000100000100100200000100000,
700000000000000000000000800000000000200000200000,
100000100000200000100000200000000000200000200000,
100000100000200000100000200000000000200000200000,
100000000000200000200000100000100000200000200000,
100000100100200000200000200000000000200000200000,
100000100000200000100000200000000000200000200000,
100000100000200000100000200000000000200000200000,
100000000000200000200000100000100100200000100000,
700000000000000000000000800000000000200000200000,
300000000000000000000000400000000000000000000000,
700000000000000000000000000000000000800000000000,
#GOGOEND
100000000000200000200000100000000000200000000000,
100000000000200000200000100000000000200000000000,
100000000000200000200000100000000000200000000000,
100000100000200000000000100000100000200000200000,
100000000000200000200000100000000000200000000000,
100000000000200000200000100000000000200000000000,
100000000000200000200000100000000000200000000000,
100000100000200000000000500000000000000000000000,
,
8,
#END
COURSE:Hard
LEVEL:4
BALLOON:5,5,7
SCOREINIT:810
SCOREDIFF:240
#START
100000000000200000000000100100100000200000000000,
100000000000200000000000100100100000200000200000,
100000000000200000000000100100100000200000000000,
100000000000200000000000100100100000200000000000,
#BPMCHANGE 189
100000000000100000100000100000000000200000000000,
100000000000100000100000100000000000200000000000,
100000000000100000100000100000000000200000000000,
100000100000100000000000100000000000000000000000,
100000000000100000100000100000000000200000000000,
100000000000100000100000100000000000200000000000,
100000000000100000100000100000000000200000000000,
100000100000100000000000300000000000000000000000,
20111010,
2121,
20111010,
2120,
2222,
20111010,
2222,
20111000,
200000000000100000100000100000000000100000000000,
200000000000100000000000200000000000100000000000,
200000000000100000100000100000000000100000000000,
200000000000100000000000200000000000000000000000,
200000000000200000000000200000000000200000000000,
200000000000100000100000100000000000100000000000,
200000000000200000000000200000000000200000000000,
200000000000100000100000100000000000000000000000,
100000100000100000000000100000100000100000000000,
100000000000100000000000100000000000000000000000,
200000200000200000000000200000200000200000000000,
200000000000200000000000200000000000000000000000,
100000100000100000000000100000100000100000000000,
100000000000100000000000100000000000000000000000,
100000000000000000000000100000000000000000000000,
100000000000100000100000200000000000500000000000,
000000000000000000000000000000000000000000000000,
000000000000000008000000000000000000000000000000,
#GOGOSTART
100000000000100000100000200000000000200000000000,
100000000000100000100000200000000000200000000000,
100000000000200000000000100000100000200000000000,
100000000000100000000000100000000000000000000000,
100000000000100000100000200000000000200000000000,
100000000000100000100000200000000000200000000000,
100000000000200000000000100000000000100000100000,
700000000000000000000000800000000000000000000000,
100000000000100000100000200000000000200000000000,
100000000000100000100000200000000000200000000000,
100000000000200000000000100000100000200000000000,
100000000000100000000000100000000000000000000000,
100000000000100000100000200000000000200000000000,
100000000000100000100000200000000000200000000000,
100000000000200000000000100000000000100000100000,
700000000000000000000000800000000000000000000000,
300000000000000000000000300000000000000000000000,
700000000000000000000000000000000000800000000000,
#GOGOEND
100000000000100000100000100000000000200000000000,
100000000000100000100000100000000000200000000000,
100000000000100000100000100000000000200000000000,
100000100000100000000000100000000000000000000000,
100000000000100000100000100000000000200000000000,
100000000000100000100000100000000000200000000000,
100000000000100000100000100000000000200000000000,
100000100000100000000000500000000000000000000000,
000000000000000000000000000000000000000000000000,
8,
#END
COURSE:Normal
LEVEL:4
STYLE:Double
SCOREINIT:1020
SCOREDIFF:388
#START P1
100000000000200000000000100000100000100000000000,
100000000000200000000000100000000000000000000000,
100000000000200000000000100000100000100000000000,
100000000000200000000000100000000000000000000000,
#BPMCHANGE 189
100000000000100000000000100000000000000000000000,
100000000000100000000000100000000000000000000000,
100000000000100000000000100000000000000000000000,
100000100000100000000000000000000000000000000000,
100000000000100000000000100000000000000000000000,
100000000000100000000000100000000000000000000000,
100000000000100000000000100000000000000000000000,
100000100000100000000000300000000000000000000000,
200000000000000000000000100000000000000000000000,
200000000000000000000000200000000000000000000000,
200000000000000000000000100000000000000000000000,
200000000000000000000000200000000000000000000000,
200000000000200000000000200000000000200000000000,
200000000000000000000000100000000000000000000000,
200000000000200000000000200000000000200000000000,
200000000000000000000000000000000000000000000000,
200000000000000000000000100000000000000000000000,
200000000000000000000000200000000000000000000000,
200000000000000000000000100000000000000000000000,
200000000000000000000000200000000000000000000000,
200000000000200000000000200000000000200000000000,
200000000000000000000000100000000000000000000000,
200000000000200000000000200000000000200000000000,
200000000000000000000000000000000000000000000000,
1110,
1110,
,
,
1110,
2220,
3,
30003050,
,
000000000000000008000000000000000000000000000000,
#GOGOSTART
100000000000100000000000100000000000000000000000,
100000000000100000000000100000000000000000000000,
200000000000000000000000200000000000000000000000,
100000000000100000100000100000000000000000000000,
100000000000100000000000100000000000000000000000,
100000000000100000000000100000000000000000000000,
100000000000000000000000300000000000300000000000,
300000000000000000000000000000000000000000000000,
100000000000100000100000100000000000000000000000,
100000000000100000100000100000000000000000000000,
200000000000200000000000200000000000000000000000,
100000000000100000100000100000000000000000000000,
100000000000100000000000100000000000000000000000,
100000000000100000000000100000000000000000000000,
100000000000000000000000100000000000100000000000,
500000000000000000000000000008000000000000000000,
300000000000000000000000300000000000000000000000,
600000000000000000000000000000000008000000000000,
#GOGOEND
100000000000100000000000100000000000000000000000,
100000000000100000000000100000000000000000000000,
100000000000100000000000100000000000000000000000,
100000100000100000000000100000000000000000000000,
100000000000100000000000100000000000000000000000,
100000000000100000000000100000000000000000000000,
100000000000100000000000100000000000000000000000,
100000100000100000000000500000000000000000000000,
000000000000000000000000000000000000000000000000,
8,
#END
#START P2
100000000000200000000000100000100000100000000000,
100000000000200000000000100000000000000000000000,
100000000000200000000000100000100000100000000000,
100000000000200000000000100000000000000000000000,
#BPMCHANGE 189
100000000000100000000000100000000000000000000000,
100000000000100000000000100000000000000000000000,
100000000000100000000000100000000000000000000000,
100000100000100000000000000000000000000000000000,
100000000000100000000000100000000000000000000000,
100000000000100000000000100000000000000000000000,
100000000000100000000000100000000000000000000000,
100000100000100000000000300000000000000000000000,
200000000000000000000000100000000000000000000000,
200000000000000000000000200000000000000000000000,
200000000000000000000000100000000000000000000000,
200000000000000000000000200000000000000000000000,
200000000000200000000000200000000000200000000000,
200000000000000000000000100000000000000000000000,
200000000000200000000000200000000000200000000000,
200000000000000000000000000000000000000000000000,
200000000000000000000000100000000000000000000000,
200000000000000000000000200000000000000000000000,
200000000000000000000000100000000000000000000000,
200000000000000000000000200000000000000000000000,
200000000000200000000000200000000000200000000000,
200000000000000000000000100000000000000000000000,
200000000000200000000000200000000000200000000000,
200000000000000000000000000000000000000000000000,
,
,
2220,
2220,
1110,
2220,
03,
3003050,
,
000000000000000008000000000000000000000000000000,
#GOGOSTART
100000000000100000000000100000000000000000000000,
100000000000100000000000100000000000000000000000,
200000000000000000000000200000000000000000000000,
100000000000100000100000100000000000000000000000,
100000000000100000000000100000000000000000000000,
100000000000100000000000100000000000000000000000,
100000000000000000000000300000000000300000000000,
300000000000000000000000000000000000000000000000,
100000000000100000100000100000000000000000000000,
100000000000100000100000100000000000000000000000,
200000000000200000000000200000000000000000000000,
100000000000100000100000100000000000000000000000,
100000000000100000000000100000000000000000000000,
100000000000100000000000100000000000000000000000,
100000000000000000000000100000000000100000000000,
500000000000000000000000000008000000000000000000,
300000000000000000000000300000000000000000000000,
600000000000000000000000000000000008000000000000,
#GOGOEND
100000000000100000000000100000000000000000000000,
100000000000100000000000100000000000000000000000,
100000000000100000000000100000000000000000000000,
100000100000100000000000100000000000000000000000,
100000000000100000000000100000000000000000000000,
100000000000100000000000100000000000000000000000,
100000000000100000000000100000000000000000000000,
100000100000100000000000500000000000000000000000,
000000000000000000000000000000000000000000000000,
8,
#END
STYLE:Single
SCOREINIT:1020
SCOREDIFF:388
#START
100000000000200000000000100000100000100000000000,
100000000000200000000000100000000000000000000000,
100000000000200000000000100000100000100000000000,
100000000000200000000000100000000000000000000000,
#BPMCHANGE 189
100000000000100000000000100000000000000000000000,
100000000000100000000000100000000000000000000000,
100000000000100000000000100000000000000000000000,
100000100000100000000000000000000000000000000000,
100000000000100000000000100000000000000000000000,
100000000000100000000000100000000000000000000000,
100000000000100000000000100000000000000000000000,
100000100000100000000000300000000000000000000000,
200000000000000000000000100000000000000000000000,
200000000000000000000000200000000000000000000000,
200000000000000000000000100000000000000000000000,
200000000000000000000000200000000000000000000000,
200000000000200000000000200000000000200000000000,
200000000000000000000000100000000000000000000000,
200000000000200000000000200000000000200000000000,
200000000000000000000000000000000000000000000000,
200000000000000000000000100000000000000000000000,
200000000000000000000000200000000000000000000000,
200000000000000000000000100000000000000000000000,
200000000000000000000000200000000000000000000000,
200000000000200000000000200000000000200000000000,
200000000000000000000000100000000000000000000000,
200000000000200000000000200000000000200000000000,
200000000000000000000000000000000000000000000000,
100000000000100000000000100000000000000000000000,
100000000000000000000000000000000000000000000000,
200000000000200000000000200000000000000000000000,
200000000000000000000000000000000000000000000000,
100000000000000000000000100000000000000000000000,
200000000000000000000000200000000000000000000000,
300000000000000000000000000000000000000000000000,
300000000000000000000000300000000000500000000000,
000000000000000000000000000000000000000000000000,
000000000000000008000000000000000000000000000000,
#GOGOSTART
100000000000100000000000100000000000000000000000,
100000000000100000000000100000000000000000000000,
200000000000000000000000200000000000000000000000,
100000000000100000100000100000000000000000000000,
100000000000100000000000100000000000000000000000,
100000000000100000000000100000000000000000000000,
100000000000000000000000300000000000300000000000,
300000000000000000000000000000000000000000000000,
100000000000100000100000100000000000000000000000,
100000000000100000100000100000000000000000000000,
200000000000200000000000200000000000000000000000,
100000000000100000100000100000000000000000000000,
100000000000100000000000100000000000000000000000,
100000000000100000000000100000000000000000000000,
100000000000000000000000100000000000100000000000,
500000000000000000000000000008000000000000000000,
300000000000000000000000300000000000000000000000,
600000000000000000000000000000000008000000000000,
#GOGOEND
100000000000100000000000100000000000000000000000,
100000000000100000000000100000000000000000000000,
100000000000100000000000100000000000000000000000,
100000100000100000000000100000000000000000000000,
100000000000100000000000100000000000000000000000,
100000000000100000000000100000000000000000000000,
100000000000100000000000100000000000000000000000,
100000100000100000000000500000000000000000000000,
000000000000000000000000000000000000000000000000,
8,
#END
COURSE:Easy
LEVEL:3
STYLE:Double
SCOREINIT:830
SCOREDIFF:410
#START P1
100000000000000000000000100000000000100000000000,
100000000000000000000000100000000000100000000000,
100000000000000000000000100000000000100000000000,
100000000000000000000000100000000000000000000000,
#BPMCHANGE 189
100000000000000000000000100000000000000000000000,
100000000000000000000000100000000000000000000000,
100000000000000000000000100000000000000000000000,
100000000000100000000000000000000000000000000000,
100000000000000000000000100000000000000000000000,
100000000000000000000000100000000000000000000000,
100000000000000000000000100000000000000000000000,
100000000000100000000000300000000000000000000000,
100000000000000000000000100000000000000000000000,
100000000000000000000000100000000000000000000000,
100000000000000000000000100000000000000000000000,
100000000000000000000000000000000000000000000000,
100000000000100000000000100000000000000000000000,
100000000000000000000000000000000000000000000000,
100000000000100000000000100000000000000000000000,
100000000000000000000000000000000000000000000000,
100000000000000000000000100000000000000000000000,
100000000000000000000000100000000000000000000000,
100000000000000000000000100000000000000000000000,
100000000000000000000000000000000000000000000000,
100000000000100000000000100000000000000000000000,
100000000000000000000000000000000000000000000000,
100000000000100000000000100000000000000000000000,
100000000000000000000000000000000000000000000000,
11,
1110,
,
,
100000000000000000000000000000000000000000000000,
100000000000100000000000100000000000000000000000,
300000000000000000000000300000000000000000000000,
100000000000000000000000300000000000500000000000,
000000000000000000000000000000000000000000000000,
000000000000000000000008000000000000000000000000,
#GOGOSTART
100000000000100000000000100000000000000000000000,
100000000000000000000000100000000000000000000000,
100000000000000000000000000000000000000000000000,
300000000000000000000000000000000000000000000000,
100000000000100000000000100000000000000000000000,
100000000000000000000000100000000000000000000000,
100000000000000000000000300000000000300000000000,
500000000000000000000000000008000000000000000000,
100000000000100000000000100000000000000000000000,
100000000000000000000000100000000000000000000000,
100000000000000000000000000000000000000000000000,
300000000000000000000000000000000000000000000000,
100000000000100000000000100000000000000000000000,
100000000000000000000000100000000000000000000000,
100000000000000000000000100000000000000000000000,
500000000000000000000000000008000000000000000000,
300000000000000000000000300000000000000000000000,
500000000000000000000000000008000000000000000000,
#GOGOEND
100000000000000000000000100000000000000000000000,
100000000000000000000000100000000000000000000000,
100000000000000000000000100000000000000000000000,
100000000000100000000000000000000000000000000000,
100000000000000000000000100000000000000000000000,
100000000000000000000000100000000000000000000000,
100000000000000000000000100000000000000000000000,
300000000000000000000000600000000000000000000000,
000000000000000000000000000000000000000000000000,
8,
#END
#START P2
100000000000000000000000100000000000100000000000,
100000000000000000000000100000000000100000000000,
100000000000000000000000100000000000100000000000,
100000000000000000000000100000000000000000000000,
#BPMCHANGE 189
100000000000000000000000100000000000000000000000,
100000000000000000000000100000000000000000000000,
100000000000000000000000100000000000000000000000,
100000000000100000000000000000000000000000000000,
100000000000000000000000100000000000000000000000,
100000000000000000000000100000000000000000000000,
100000000000000000000000100000000000000000000000,
100000000000100000000000300000000000000000000000,
100000000000000000000000100000000000000000000000,
100000000000000000000000100000000000000000000000,
100000000000000000000000100000000000000000000000,
100000000000000000000000000000000000000000000000,
100000000000100000000000100000000000000000000000,
100000000000000000000000000000000000000000000000,
100000000000100000000000100000000000000000000000,
100000000000000000000000000000000000000000000000,
100000000000000000000000100000000000000000000000,
100000000000000000000000100000000000000000000000,
100000000000000000000000100000000000000000000000,
100000000000000000000000000000000000000000000000,
100000000000100000000000100000000000000000000000,
100000000000000000000000000000000000000000000000,
100000000000100000000000100000000000000000000000,
100000000000000000000000000000000000000000000000,
,
,
22,
2220,
100000000000000000000000000000000000000000000000,
100000000000100000000000100000000000000000000000,
300000000000000000000000300000000000000000000000,
100000000000000000000000300000000000500000000000,
000000000000000000000000000000000000000000000000,
000000000000000000000008000000000000000000000000,
#GOGOSTART
100000000000100000000000100000000000000000000000,
100000000000000000000000100000000000000000000000,
100000000000000000000000000000000000000000000000,
300000000000000000000000000000000000000000000000,
100000000000100000000000100000000000000000000000,
100000000000000000000000100000000000000000000000,
100000000000000000000000300000000000300000000000,
500000000000000000000000000008000000000000000000,
100000000000100000000000100000000000000000000000,
100000000000000000000000100000000000000000000000,
100000000000000000000000000000000000000000000000,
300000000000000000000000000000000000000000000000,
100000000000100000000000100000000000000000000000,
100000000000000000000000100000000000000000000000,
100000000000000000000000100000000000000000000000,
500000000000000000000000000008000000000000000000,
300000000000000000000000300000000000000000000000,
500000000000000000000000000008000000000000000000,
#GOGOEND
100000000000000000000000100000000000000000000000,
100000000000000000000000100000000000000000000000,
100000000000000000000000100000000000000000000000,
100000000000100000000000000000000000000000000000,
100000000000000000000000100000000000000000000000,
100000000000000000000000100000000000000000000000,
100000000000000000000000100000000000000000000000,
300000000000000000000000600000000000000000000000,
000000000000000000000000000000000000000000000000,
8,
#END
STYLE:Single
SCOREINIT:830
SCOREDIFF:410
#START
100000000000000000000000100000000000100000000000,
100000000000000000000000100000000000100000000000,
100000000000000000000000100000000000100000000000,
100000000000000000000000100000000000000000000000,
#BPMCHANGE 189
100000000000000000000000100000000000000000000000,
100000000000000000000000100000000000000000000000,
100000000000000000000000100000000000000000000000,
100000000000100000000000000000000000000000000000,
100000000000000000000000100000000000000000000000,
100000000000000000000000100000000000000000000000,
100000000000000000000000100000000000000000000000,
100000000000100000000000300000000000000000000000,
100000000000000000000000100000000000000000000000,
100000000000000000000000100000000000000000000000,
100000000000000000000000100000000000000000000000,
100000000000000000000000000000000000000000000000,
100000000000100000000000100000000000000000000000,
100000000000000000000000000000000000000000000000,
100000000000100000000000100000000000000000000000,
100000000000000000000000000000000000000000000000,
100000000000000000000000100000000000000000000000,
100000000000000000000000100000000000000000000000,
100000000000000000000000100000000000000000000000,
100000000000000000000000000000000000000000000000,
100000000000100000000000100000000000000000000000,
100000000000000000000000000000000000000000000000,
100000000000100000000000100000000000000000000000,
100000000000000000000000000000000000000000000000,
100000000000000000000000000000000000000000000000,
100000000000000000000000100000000000000000000000,
200000000000000000000000000000000000000000000000,
200000000000000000000000200000000000000000000000,
100000000000000000000000000000000000000000000000,
100000000000100000000000100000000000000000000000,
300000000000000000000000300000000000000000000000,
100000000000000000000000300000000000500000000000,
000000000000000000000000000000000000000000000000,
000000000000000000000008000000000000000000000000,
#GOGOSTART
100000000000100000000000100000000000000000000000,
100000000000000000000000100000000000000000000000,
100000000000000000000000000000000000000000000000,
300000000000000000000000000000000000000000000000,
100000000000100000000000100000000000000000000000,
100000000000000000000000100000000000000000000000,
100000000000000000000000300000000000300000000000,
500000000000000000000000000008000000000000000000,
100000000000100000000000100000000000000000000000,
100000000000000000000000100000000000000000000000,
100000000000000000000000000000000000000000000000,
300000000000000000000000000000000000000000000000,
100000000000100000000000100000000000000000000000,
100000000000000000000000100000000000000000000000,
100000000000000000000000100000000000000000000000,
500000000000000000000000000008000000000000000000,
300000000000000000000000300000000000000000000000,
500000000000000000000000000008000000000000000000,
#GOGOEND
100000000000000000000000100000000000000000000000,
100000000000000000000000100000000000000000000000,
100000000000000000000000100000000000000000000000,
100000000000100000000000000000000000000000000000,
100000000000000000000000100000000000000000000000,
100000000000000000000000100000000000000000000000,
100000000000000000000000100000000000000000000000,
300000000000000000000000600000000000000000000000,
000000000000000000000000000000000000000000000000,
8,
#END