forked from ESE/ESE
819 lines
23 KiB
Plaintext
819 lines
23 KiB
Plaintext
//TJADB Project
|
|
TITLE:Angelic Angel
|
|
TITLEJA:Angelic Angel
|
|
SUBTITLE:--μ’s/Love Live! The School Idol Movie
|
|
SUBTITLEJA:μ's 映画「ラブライブ!The School Idol Movie」より
|
|
BPM:158.98
|
|
WAVE:Angelic Angel.ogg
|
|
OFFSET:-2.508
|
|
DEMOSTART:67.001
|
|
|
|
COURSE:Oni
|
|
LEVEL:7
|
|
BALLOON:22,11
|
|
SCOREINIT:550
|
|
SCOREDIFF:138
|
|
|
|
|
|
#START
|
|
|
|
|
|
100000000000200000200000000000200000100000200000,
|
|
#BPMCHANGE 162.05
|
|
#SCROLL 0.98
|
|
000000100000100000100100100000100000200000100000,
|
|
#BPMCHANGE 158.56
|
|
#SCROLL 1
|
|
100000000000200000200000000000200000100000500000,
|
|
#BPMCHANGE 154.92
|
|
#SCROLL 1.03
|
|
000000000000000000000000000000000080000000000000,
|
|
#BPMCHANGE 164.62
|
|
#SCROLL 0.97
|
|
100000000000200000200000000000200000100000200000,
|
|
#BPMCHANGE 160.18
|
|
#SCROLL 0.99
|
|
000000100000100000100100100000100000200000100000,
|
|
#BPMCHANGE 162.61
|
|
#SCROLL 0.98
|
|
100000000000200000200000000000200000100000700000,
|
|
#BPMCHANGE 157.5
|
|
#SCROLL 1.01
|
|
000000000000000000000000000000000000000000000000,
|
|
#BPMCHANGE 160.25
|
|
#SCROLL 0.99
|
|
000000000000000000000000000000000000800000000000,
|
|
#BPMCHANGE 160.38
|
|
100000000000200000100000100000100000200000100000,
|
|
000000100000200000100000200000100000200000100000,
|
|
#BPMCHANGE 160
|
|
#SCROLL 1
|
|
200000000000200000100000200000200000100000100000,
|
|
000000100000200000100000200000100100200000000000,
|
|
#BPMCHANGE 162.85
|
|
#SCROLL 0.98
|
|
100000000000200000100000100000100000200000100000,
|
|
#BPMCHANGE 158.4
|
|
#SCROLL 1.01
|
|
000000100000200000100000200000100000200000100000,
|
|
500000000000000000000008000000200000100000200000,
|
|
#BPMCHANGE 158.71
|
|
#SCROLL 1
|
|
000000100000100000200000000000100000200000100100,
|
|
#BPMCHANGE 161.97
|
|
#SCROLL 0.98
|
|
200000000000100000200000200000200000100000200000,
|
|
#BPMCHANGE 159.77
|
|
#SCROLL 1
|
|
000000200000100000200000100000200000100000200000,
|
|
#BPMCHANGE 160
|
|
100000000000100000200000100000100100200000200000,
|
|
000000200000100000200000100000200000100000000000,
|
|
200000000000100000200000200000200000100000200000,
|
|
000000200000100000200000100000200000100000200000,
|
|
#BPMCHANGE 160.08
|
|
#SCROLL 0.99
|
|
500000000000000000000008000000100000200000100000,
|
|
#BPMCHANGE 161.66
|
|
#SCROLL 0.98
|
|
000000200000200000100000000000200200100000000000,
|
|
#BPMCHANGE 159.14
|
|
#SCROLL 1
|
|
100000200200200000100000200200200000100000000000,
|
|
200000200000100000200000100000200000100000000000,
|
|
#BPMCHANGE 160
|
|
100000200200200000100000200200200000100000000000,
|
|
#BPMCHANGE 161.72
|
|
#SCROLL 0.98
|
|
200000000000100000200000100000200000100000000000,
|
|
#BPMCHANGE 157.2
|
|
#SCROLL 1.01
|
|
100000200000100000100000200000000000100000100000,
|
|
#BPMCHANGE 161.15
|
|
#SCROLL 0.99
|
|
200000000000100000200000100000100000200000100000,
|
|
#BPMCHANGE 161.22
|
|
200000000000100000200000200000100000100000100000,
|
|
#BPMCHANGE 158.8
|
|
#SCROLL 1
|
|
000000200000100000100000000000200000100000000000,
|
|
#BPMCHANGE 159.07
|
|
100000200200200000100000200200200000100000000000,
|
|
#BPMCHANGE 162.13
|
|
#SCROLL 0.98
|
|
200000200000100000200000100000200000100000000000,
|
|
#BPMCHANGE 159.78
|
|
#SCROLL 1
|
|
100000200200200000100000200200200000100000200200,
|
|
#BPMCHANGE 160.71
|
|
#SCROLL 0.99
|
|
200000100000200000200200100000200000100000000000,
|
|
#BPMCHANGE 159.9
|
|
#SCROLL 1
|
|
100000000000200000100100100000100000200000100000,
|
|
#BPMCHANGE 161.54
|
|
#SCROLL 0.99
|
|
000000100000200000100100100000100000200000000000,
|
|
#BPMCHANGE 156.01
|
|
#SCROLL 1.02
|
|
100000000000200000100100100000100000200000100000,
|
|
#BPMCHANGE 160.91
|
|
#SCROLL 0.99
|
|
000000100000200000100100100000100000200000100000,
|
|
#BPMCHANGE 162.25
|
|
#SCROLL 0.98
|
|
500000000000000000000000000008000000000000300000,
|
|
#BPMCHANGE 157.9
|
|
#SCROLL 1.01
|
|
000000300000000000300000000000000000000000000000,
|
|
#BPMCHANGE 160.3
|
|
#SCROLL 0.99
|
|
#GOGOSTART
|
|
100000100100200000200100100000100100200000100100,
|
|
100000100100200000100100100000100000200000100000,
|
|
100000100100200000200100100000100100200000100100,
|
|
100000100100200000100000300000000000300000000000,
|
|
#BPMCHANGE 159.05
|
|
#SCROLL 1
|
|
100000100100200000100100200000100100200000200000,
|
|
#BPMCHANGE 159.9
|
|
000000200000200000100100100000100100100000200100,
|
|
#BPMCHANGE 161.03
|
|
#SCROLL 0.99
|
|
200000100100200000200000100100200000100000200000,
|
|
#BPMCHANGE 158.85
|
|
#SCROLL 1
|
|
000000100000200000200100100000100100200000000000,
|
|
#BPMCHANGE 160
|
|
100000100100200000200100100000100100200000100100,
|
|
100000100100200000100100100000100000200000100000,
|
|
#BPMCHANGE 162.17
|
|
#SCROLL 0.98
|
|
100000100100200000200100100000100100200000100100,
|
|
#BPMCHANGE 159.63
|
|
#SCROLL 1
|
|
100000100100200000100000300000000000300000000000,
|
|
100000100100200000100100200000100100200000200000,
|
|
000000200100100000200200200000100100200000000000,
|
|
#BPMCHANGE 160.64
|
|
#SCROLL 0.99
|
|
200000100100200000200100100000100100200000200000,
|
|
000000200000000000200000000000100100100000000000,
|
|
#BPMCHANGE 158.79
|
|
#SCROLL 1
|
|
100000000000200000100100100000100000200000000000,
|
|
100000000000200000100100100000100000200000000000,
|
|
#BPMCHANGE 160.94
|
|
#SCROLL 0.99
|
|
100000000000200000100100200000100000200000100000,
|
|
000000100100200000100000200200100000100000000000,
|
|
#BPMCHANGE 158.11
|
|
#SCROLL 1.01
|
|
100000000000200000100000100100100000200000000000,
|
|
#BPMCHANGE 160.56
|
|
#SCROLL 0.99
|
|
100000000000200000100000100100100000200000100000,
|
|
#BPMCHANGE 161.18
|
|
200000000000100000100000200000200200200000700000,
|
|
#BPMCHANGE 158.76
|
|
#SCROLL 1
|
|
000000000000000000000000000000000000800000000000,
|
|
#BPMCHANGE 159.88
|
|
#GOGOEND
|
|
100000000000200000200000000000200000100000200000,
|
|
#BPMCHANGE 158.4
|
|
#SCROLL 1.01
|
|
000000100000100000100100100000100000200000100000,
|
|
#BPMCHANGE 160.56
|
|
#SCROLL 0.99
|
|
100000100000200000200000000000200000100000500000,
|
|
#BPMCHANGE 159.32
|
|
#SCROLL 1
|
|
000000000000000000000000000000000008000000000000,
|
|
#BPMCHANGE 160.79
|
|
#SCROLL 0.99
|
|
100000000000200000200000000000200000100000200000,
|
|
000000100000100000100100100000100000200000100000,
|
|
#BPMCHANGE 160.56
|
|
100000000000200000200000000000200000100000100000,
|
|
#BPMCHANGE 159.01
|
|
#SCROLL 1
|
|
000000100000100000100100100000100000200000100000,
|
|
#BPMCHANGE 158.4
|
|
#SCROLL 1.01
|
|
200000000000100000200000100000200000100100100000,
|
|
#BPMCHANGE 160.56
|
|
#SCROLL 0.99
|
|
200000100000000000100000000000200000100100100000,
|
|
#BPMCHANGE 160.32
|
|
200000000000100000200000100000200000100100100000,
|
|
200000100000000000100000000000200000100100100000,
|
|
|
|
|
|
#END
|
|
|
|
|
|
COURSE:Hard
|
|
LEVEL:4
|
|
BALLOON:14,11,10,10,10
|
|
SCOREINIT:650
|
|
SCOREDIFF:180
|
|
|
|
#START
|
|
|
|
|
|
100000000000200000100000000000100000200000100000,
|
|
#BPMCHANGE 162.05
|
|
#SCROLL 0.98
|
|
000000000000200000000000000000000000200000000000,
|
|
#BPMCHANGE 158.56
|
|
#SCROLL 1
|
|
100000000000200000100000000000100000200000500000,
|
|
#BPMCHANGE 154.92
|
|
#SCROLL 1.03
|
|
000000000000000000000000000000000080000000000000,
|
|
#BPMCHANGE 164.62
|
|
#SCROLL 0.97
|
|
100000000000200000100000000000100000200000100000,
|
|
#BPMCHANGE 160.18
|
|
#SCROLL 0.99
|
|
000000000000200000100000000000000000200000000000,
|
|
#BPMCHANGE 162.61
|
|
#SCROLL 0.98
|
|
100000000000200000100000000000100000200000900000,
|
|
#BPMCHANGE 157.5
|
|
#SCROLL 1.01
|
|
000000000000000000000000000000000090000000000008,
|
|
#BPMCHANGE 160.25
|
|
#SCROLL 0.99
|
|
000000000000000000000000000000000000000000000000,
|
|
#BPMCHANGE 160.38
|
|
000000000000100000100000100000000000200000200000,
|
|
000000100000000000100000000000000000100000100000,
|
|
#BPMCHANGE 160
|
|
#SCROLL 1
|
|
200000000000200000100000000000000000000000000000,
|
|
000000100000200000100000200000000000200000000000,
|
|
#BPMCHANGE 162.85
|
|
#SCROLL 0.98
|
|
000000000000100000100000100000000000200000200000,
|
|
#BPMCHANGE 158.4
|
|
#SCROLL 1.01
|
|
000000000000200000100000000000100000200000000000,
|
|
200000000000200000000000000000200000100000200000,
|
|
#BPMCHANGE 158.71
|
|
#SCROLL 1
|
|
000000000000100000200000000000100000200000000000,
|
|
#BPMCHANGE 161.97
|
|
#SCROLL 0.98
|
|
000000000000200000200000200000000000100000100000,
|
|
#BPMCHANGE 159.77
|
|
#SCROLL 1
|
|
000000200000000000200000000000000000200000000000,
|
|
#BPMCHANGE 160
|
|
100000000000100000200000000000000000000000000000,
|
|
000000200000100000200000100000000000100000000000,
|
|
000000000000200000200000200000000000100000100000,
|
|
000000000000100000200000000000200000100000000000,
|
|
#BPMCHANGE 160.08
|
|
#SCROLL 0.99
|
|
200000000000200000000000000000200000100000500000,
|
|
#BPMCHANGE 161.66
|
|
#SCROLL 0.98
|
|
000000000000000000000008000000000000000000000000,
|
|
#BPMCHANGE 159.14
|
|
#SCROLL 1
|
|
200000000000200000100000000000100000200000000000,
|
|
000000000000100000000000100000000000100000000000,
|
|
#BPMCHANGE 160
|
|
200000000000200000100000000000100000200000000000,
|
|
#BPMCHANGE 161.72
|
|
#SCROLL 0.98
|
|
000000000000100000000000100000100000000000000000,
|
|
#BPMCHANGE 157.2
|
|
#SCROLL 1.01
|
|
100000000000100000200000000000000000200000100000,
|
|
#BPMCHANGE 161.15
|
|
#SCROLL 0.99
|
|
000000000000200000000000200000100000000000700000,
|
|
#BPMCHANGE 161.22
|
|
000000000000000000000000000000000000000000800000,
|
|
#BPMCHANGE 158.8
|
|
#SCROLL 1
|
|
000000000000000000000000000000000000000000000000,
|
|
#BPMCHANGE 159.07
|
|
200000000000200000100000000000100000200000000000,
|
|
#BPMCHANGE 162.13
|
|
#SCROLL 0.98
|
|
000000000000100000000000100000000000100000000000,
|
|
#BPMCHANGE 159.78
|
|
#SCROLL 1
|
|
200000000000200000100000000000100000200000000000,
|
|
#BPMCHANGE 160.71
|
|
#SCROLL 0.99
|
|
000000100000000000000000100000000000100000000000,
|
|
#BPMCHANGE 159.9
|
|
#SCROLL 1
|
|
100000000000100000100000000000000000000000100000,
|
|
#BPMCHANGE 161.54
|
|
#SCROLL 0.99
|
|
000000100000000000100000000000000000000000000000,
|
|
#BPMCHANGE 156.01
|
|
#SCROLL 1.02
|
|
000000000000100000000000100000000000100000100000,
|
|
#BPMCHANGE 160.91
|
|
#SCROLL 0.99
|
|
000000000000000000100000000000100000100000000000,
|
|
#BPMCHANGE 162.25
|
|
#SCROLL 0.98
|
|
500000000000000000000000000000000000000000000008,
|
|
#BPMCHANGE 157.9
|
|
#SCROLL 1.01
|
|
000000000000000000000000000000000000000000000000,
|
|
#BPMCHANGE 160.3
|
|
#SCROLL 0.99
|
|
#GOGOSTART
|
|
100000000000200000100000000000100000200000500000,
|
|
000000000000000000000008000000100000200000100000,
|
|
100000000000200000100000000000100000200000100000,
|
|
000000100000200000100000300000000000300000000000,
|
|
#BPMCHANGE 159.05
|
|
#SCROLL 1
|
|
100000000000200000000000100000000000200000100000,
|
|
#BPMCHANGE 159.9
|
|
000000100000200000100000000000100000200000100000,
|
|
#BPMCHANGE 161.03
|
|
#SCROLL 0.99
|
|
100000000000200000100000000000100000200000700000,
|
|
#BPMCHANGE 158.85
|
|
#SCROLL 1
|
|
000000000000000000000000000000000000800000000000,
|
|
#BPMCHANGE 160
|
|
100000000000200000100000000000100000200000500000,
|
|
000000000000000000000008000000100000200000100000,
|
|
#BPMCHANGE 162.17
|
|
#SCROLL 0.98
|
|
100000000000200000100000000000100000200000100000,
|
|
#BPMCHANGE 159.63
|
|
#SCROLL 1
|
|
000000100000200000100000300000000000300000000000,
|
|
100000000000200000000000100000000000200000000000,
|
|
100000000000200000000000100000000000200000100000,
|
|
#BPMCHANGE 160.64
|
|
#SCROLL 0.99
|
|
100000000000200000100000000000100000200000700000,
|
|
000000000000000000000000000000000000800000000000,
|
|
#BPMCHANGE 158.79
|
|
#SCROLL 1
|
|
100000000000200000000000100000000000200000000000,
|
|
100000000000200000000000100000000000200000000000,
|
|
#BPMCHANGE 160.94
|
|
#SCROLL 0.99
|
|
100000000000200000000000100000000000200000100000,
|
|
000000100000200000100000200000000000100000000000,
|
|
#BPMCHANGE 158.11
|
|
#SCROLL 1.01
|
|
100000000000200000000000100000000000200000000000,
|
|
#BPMCHANGE 160.56
|
|
#SCROLL 0.99
|
|
100000000000200000000000100000000000200000000000,
|
|
#BPMCHANGE 161.18
|
|
100000000000200000100000000000000000000000700000,
|
|
#BPMCHANGE 158.76
|
|
#SCROLL 1
|
|
000000000000000000000000000000000000800000000000,
|
|
#BPMCHANGE 159.88
|
|
#GOGOEND
|
|
100000000000200000100000000000100000200000100000,
|
|
#BPMCHANGE 158.4
|
|
#SCROLL 1.01
|
|
000000000000200000000000000000000000200000000000,
|
|
#BPMCHANGE 160.56
|
|
#SCROLL 0.99
|
|
100000000000200000100000000000100000200000500000,
|
|
#BPMCHANGE 159.32
|
|
#SCROLL 1
|
|
000000000000000000000000000000000008000000000000,
|
|
#BPMCHANGE 160.79
|
|
#SCROLL 0.99
|
|
100000000000200000100000000000100000200000100000,
|
|
000000000000200000000000000000000000200000000000,
|
|
#BPMCHANGE 160.56
|
|
100000000000200000100000000000100000200000100000,
|
|
#BPMCHANGE 159.01
|
|
#SCROLL 1
|
|
000000100000200000100000000000100000200000000000,
|
|
#BPMCHANGE 158.4
|
|
#SCROLL 1.01
|
|
,
|
|
#BPMCHANGE 160.56
|
|
#SCROLL 0.99
|
|
,
|
|
#BPMCHANGE 160.32
|
|
,
|
|
,
|
|
|
|
|
|
#END
|
|
|
|
COURSE:Normal
|
|
LEVEL:4
|
|
BALLOON:8,10,8,8,8,8,8
|
|
|
|
#START
|
|
|
|
|
|
100000000000000000100000000000000000000000500000,
|
|
#BPMCHANGE 162.05
|
|
#SCROLL 0.98
|
|
000000000000000000000000000000000000800000000000,
|
|
#BPMCHANGE 158.56
|
|
#SCROLL 1
|
|
100000000000000000100000000000000000000000700000,
|
|
#BPMCHANGE 154.92
|
|
#SCROLL 1.03
|
|
000000000000000000000000000000000008000000000000,
|
|
#BPMCHANGE 164.62
|
|
#SCROLL 0.97
|
|
100000000000200000000000000000000000200000000000,
|
|
#BPMCHANGE 160.18
|
|
#SCROLL 0.99
|
|
100000000000200000000000000000000000200000000000,
|
|
#BPMCHANGE 162.61
|
|
#SCROLL 0.98
|
|
100000000000200000000000000000000000000000900000,
|
|
#BPMCHANGE 157.5
|
|
#SCROLL 1.01
|
|
000000000000000000000000000000000090000000000008,
|
|
#BPMCHANGE 160.25
|
|
#SCROLL 0.99
|
|
000000000000000000000000000000000000000000000000,
|
|
#BPMCHANGE 160.38
|
|
100000000000000000000000100000000000000000100000,
|
|
000000000000000000000000100000000000100000000000,
|
|
#BPMCHANGE 160
|
|
#SCROLL 1
|
|
100000000000000000000000100000000000000000200000,
|
|
000000000000000000000000200000000000200000000000,
|
|
#BPMCHANGE 162.85
|
|
#SCROLL 0.98
|
|
100000000000000000000000100000000000000000100000,
|
|
#BPMCHANGE 158.4
|
|
#SCROLL 1.01
|
|
000000000000000000000000100000000000100000000000,
|
|
100000000000000000000000100000000000000000100000,
|
|
#BPMCHANGE 158.71
|
|
#SCROLL 1
|
|
000000000000000000000000200000000000200000000000,
|
|
#BPMCHANGE 161.97
|
|
#SCROLL 0.98
|
|
200000000000000000000000200000000000000000200000,
|
|
#BPMCHANGE 159.77
|
|
#SCROLL 1
|
|
000000000000000000000000200000000000200000000000,
|
|
#BPMCHANGE 160
|
|
200000000000000000000000200000000000000000200000,
|
|
000000000000000000000000100000000000100000000000,
|
|
200000000000000000000000200000000000000000200000,
|
|
000000000000000000000000200000000000200000000000,
|
|
#BPMCHANGE 160.08
|
|
#SCROLL 0.99
|
|
200000000000000000000000200000000000000000500000,
|
|
#BPMCHANGE 161.66
|
|
#SCROLL 0.98
|
|
000000000000000000000008000000000000000000000000,
|
|
#BPMCHANGE 159.14
|
|
#SCROLL 1
|
|
100000000000000000100000000000000000100000000000,
|
|
000000000000100000000000100000000000000000000000,
|
|
#BPMCHANGE 160
|
|
100000000000000000100000000000000000100000000000,
|
|
#BPMCHANGE 161.72
|
|
#SCROLL 0.98
|
|
000000000000100000000000100000000000000000000000,
|
|
#BPMCHANGE 157.2
|
|
#SCROLL 1.01
|
|
100000000000000000000000200000000000000000000000,
|
|
#BPMCHANGE 161.15
|
|
#SCROLL 0.99
|
|
100000000000000000000000200000000000000000700000,
|
|
#BPMCHANGE 161.22
|
|
000000000000000000000000000000000000800000000000,
|
|
#BPMCHANGE 158.8
|
|
#SCROLL 1
|
|
000000000000000000000000000000000000000000000000,
|
|
#BPMCHANGE 159.07
|
|
100000000000000000100000000000000000100000000000,
|
|
#BPMCHANGE 162.13
|
|
#SCROLL 0.98
|
|
000000000000100000000000100000000000000000000000,
|
|
#BPMCHANGE 159.78
|
|
#SCROLL 1
|
|
100000000000000000100000000000000000100000000000,
|
|
#BPMCHANGE 160.71
|
|
#SCROLL 0.99
|
|
000000000000000000000000100000000000100000000000,
|
|
#BPMCHANGE 159.9
|
|
#SCROLL 1
|
|
100000000000200000000000000000000000200000000000,
|
|
#BPMCHANGE 161.54
|
|
#SCROLL 0.99
|
|
000000000000200000000000000000000000200000000000,
|
|
#BPMCHANGE 156.01
|
|
#SCROLL 1.02
|
|
100000000000200000000000000000000000200000000000,
|
|
#BPMCHANGE 160.91
|
|
#SCROLL 0.99
|
|
000000000000200000000000000000000000200000000000,
|
|
#BPMCHANGE 162.25
|
|
#SCROLL 0.98
|
|
500000000000000000000000000000000000000000000008,
|
|
#BPMCHANGE 157.9
|
|
#SCROLL 1.01
|
|
000000000000000000000000000000000000000000000000,
|
|
#BPMCHANGE 160.3
|
|
#SCROLL 0.99
|
|
#GOGOSTART
|
|
100000000000100000100000000000100000000000500000,
|
|
000000000000000000000008000000000000000000000000,
|
|
100000000000100000100000000000100000100000100000,
|
|
000000100000100000100000300000000000300000000000,
|
|
#BPMCHANGE 159.05
|
|
#SCROLL 1
|
|
000000000000200000000000200000000000200000200000,
|
|
#BPMCHANGE 159.9
|
|
000000200000200000200000000000000000000000200000,
|
|
#BPMCHANGE 161.03
|
|
#SCROLL 0.99
|
|
200000000000200000200000000000200000000000700000,
|
|
#BPMCHANGE 158.85
|
|
#SCROLL 1
|
|
000000000000000000000000000000000000800000000000,
|
|
#BPMCHANGE 160
|
|
100000000000100000100000000000100000000000500000,
|
|
000000000000000000000008000000000000000000000000,
|
|
#BPMCHANGE 162.17
|
|
#SCROLL 0.98
|
|
100000000000100000100000000000100000100000100000,
|
|
#BPMCHANGE 159.63
|
|
#SCROLL 1
|
|
000000100000100000100000300000000000300000000000,
|
|
000000000000200000000000200000000000200000200000,
|
|
000000200000000000200000000000000000000000000000,
|
|
#BPMCHANGE 160.64
|
|
#SCROLL 0.99
|
|
200000000000200000200000000000000000000000700000,
|
|
000000000000000000000000000000000000800000000000,
|
|
#BPMCHANGE 158.79
|
|
#SCROLL 1
|
|
100000000000100000000000200000000000200000000000,
|
|
100000000000100000000000200000000000200000000000,
|
|
#BPMCHANGE 160.94
|
|
#SCROLL 0.99
|
|
100000000000100000000000200000000000200000100000,
|
|
000000000000200000000000200000000000100000000000,
|
|
#BPMCHANGE 158.11
|
|
#SCROLL 1.01
|
|
100000000000000000000000100000000000000000000000,
|
|
#BPMCHANGE 160.56
|
|
#SCROLL 0.99
|
|
100000000000000000000000100000000000000000000000,
|
|
#BPMCHANGE 161.18
|
|
100000000000000000000000000000000000000000700000,
|
|
#BPMCHANGE 158.76
|
|
#SCROLL 1
|
|
000000000000000000000000000000000000800000000000,
|
|
#BPMCHANGE 159.88
|
|
#GOGOEND
|
|
100000000000000000100000000000000000000000500000,
|
|
#BPMCHANGE 158.4
|
|
#SCROLL 1.01
|
|
000000000000000000000000000000000008000000000000,
|
|
#BPMCHANGE 160.56
|
|
#SCROLL 0.99
|
|
100000000000000000100000000000000000000000700000,
|
|
#BPMCHANGE 159.32
|
|
#SCROLL 1
|
|
000000000000000000000000000000000000800000000000,
|
|
#BPMCHANGE 160.79
|
|
#SCROLL 0.99
|
|
100000000000200000000000000000000000200000000000,
|
|
100000000000200000000000000000000000200000000000,
|
|
#BPMCHANGE 160.56
|
|
100000000000000000100000000000000000000000100000,
|
|
#BPMCHANGE 159.01
|
|
#SCROLL 1
|
|
000000000000000000100000000000000000200000000000,
|
|
#BPMCHANGE 158.4
|
|
#SCROLL 1.01
|
|
,
|
|
#BPMCHANGE 160.56
|
|
#SCROLL 0.99
|
|
,
|
|
#BPMCHANGE 160.32
|
|
,
|
|
,
|
|
|
|
|
|
#END
|
|
|
|
COURSE:Easy
|
|
LEVEL:3
|
|
BALLOON:5,4,4,4,4,4,20
|
|
|
|
#START
|
|
|
|
|
|
100000000000000000000000000000000000000000500000,
|
|
#BPMCHANGE 162.05
|
|
#SCROLL 0.98
|
|
000000000000000000000000000000800000000000000000,
|
|
#BPMCHANGE 158.56
|
|
#SCROLL 1
|
|
100000000000000000000000000000000000000000500000,
|
|
#BPMCHANGE 154.92
|
|
#SCROLL 1.03
|
|
000000000000000000000000000000000080000000000000,
|
|
#BPMCHANGE 164.62
|
|
#SCROLL 0.97
|
|
000000000000100000000000000000000000100000000000,
|
|
#BPMCHANGE 160.18
|
|
#SCROLL 0.99
|
|
000000000000100000000000000000000000100000000000,
|
|
#BPMCHANGE 162.61
|
|
#SCROLL 0.98
|
|
000000000000100000000000000000000000000000900000,
|
|
#BPMCHANGE 157.5
|
|
#SCROLL 1.01
|
|
000000000000000000000000000000000090000000000008,
|
|
#BPMCHANGE 160.25
|
|
#SCROLL 0.99
|
|
000000000000000000000000000000000000000000000000,
|
|
#BPMCHANGE 160.38
|
|
100000000000000000000000100000000000000000000000,
|
|
100000000000000000000000000000000000000000000000,
|
|
#BPMCHANGE 160
|
|
#SCROLL 1
|
|
100000000000000000000000000000000000000000000000,
|
|
100000000000000000000000100000000000100000000000,
|
|
#BPMCHANGE 162.85
|
|
#SCROLL 0.98
|
|
100000000000000000000000100000000000000000000000,
|
|
#BPMCHANGE 158.4
|
|
#SCROLL 1.01
|
|
100000000000000000000000000000000000000000000000,
|
|
100000000000000000000000000000000000000000500000,
|
|
#BPMCHANGE 158.71
|
|
#SCROLL 1
|
|
000000000000000000000000000008000000000000000000,
|
|
#BPMCHANGE 161.97
|
|
#SCROLL 0.98
|
|
200000000000000000000000200000000000000000000000,
|
|
#BPMCHANGE 159.77
|
|
#SCROLL 1
|
|
200000000000000000000000000000000000000000000000,
|
|
#BPMCHANGE 160
|
|
200000000000000000000000000000000000000000000000,
|
|
200000000000000000000000200000000000200000000000,
|
|
200000000000000000000000200000000000000000000000,
|
|
200000000000000000000000000000000000000000000000,
|
|
#BPMCHANGE 160.08
|
|
#SCROLL 0.99
|
|
200000000000000000000000000000000000000000500000,
|
|
#BPMCHANGE 161.66
|
|
#SCROLL 0.98
|
|
000000000000000000000008000000000000000000000000,
|
|
#BPMCHANGE 159.14
|
|
#SCROLL 1
|
|
100000000000000000100000000000000000100000000000,
|
|
000000000000000000000000000000000000000000000000,
|
|
#BPMCHANGE 160
|
|
100000000000000000100000000000000000100000000000,
|
|
#BPMCHANGE 161.72
|
|
#SCROLL 0.98
|
|
000000000000000000000000000000000000000000000000,
|
|
#BPMCHANGE 157.2
|
|
#SCROLL 1.01
|
|
100000000000000000000000100000000000000000000000,
|
|
#BPMCHANGE 161.15
|
|
#SCROLL 0.99
|
|
100000000000000000000000100000000000000000700000,
|
|
#BPMCHANGE 161.22
|
|
000000000000000000000000000000000000800000000000,
|
|
#BPMCHANGE 158.8
|
|
#SCROLL 1
|
|
000000000000000000000000000000000000000000000000,
|
|
#BPMCHANGE 159.07
|
|
100000000000000000100000000000000000100000000000,
|
|
#BPMCHANGE 162.13
|
|
#SCROLL 0.98
|
|
000000000000000000000000000000000000000000000000,
|
|
#BPMCHANGE 159.78
|
|
#SCROLL 1
|
|
100000000000000000100000000000000000100000000000,
|
|
#BPMCHANGE 160.71
|
|
#SCROLL 0.99
|
|
000000000000000000000000000000000000000000000000,
|
|
#BPMCHANGE 159.9
|
|
#SCROLL 1
|
|
100000000000100000000000000000000000100000000000,
|
|
#BPMCHANGE 161.54
|
|
#SCROLL 0.99
|
|
000000000000100000000000000000000000100000000000,
|
|
#BPMCHANGE 156.01
|
|
#SCROLL 1.02
|
|
000000000000100000000000000000000000100000000000,
|
|
#BPMCHANGE 160.91
|
|
#SCROLL 0.99
|
|
000000000000100000000000000000000000100000000000,
|
|
#BPMCHANGE 162.25
|
|
#SCROLL 0.98
|
|
500000000000000000000000000000000000000008000000,
|
|
#BPMCHANGE 157.9
|
|
#SCROLL 1.01
|
|
000000000000000000000000000000000000000000000000,
|
|
#BPMCHANGE 160.3
|
|
#SCROLL 0.99
|
|
#GOGOSTART
|
|
100000000000100000000000100000000000000000500000,
|
|
000000000000000000000008000000000000000000000000,
|
|
100000000000100000000000100000000000000000000000,
|
|
100000000000000000000000300000000000300000000000,
|
|
#BPMCHANGE 159.05
|
|
#SCROLL 1
|
|
200000000000200000000000200000000000000000000000,
|
|
#BPMCHANGE 159.9
|
|
200000000000200000000000200000000000000000000000,
|
|
#BPMCHANGE 161.03
|
|
#SCROLL 0.99
|
|
200000000000200000000000200000000000000000700000,
|
|
#BPMCHANGE 158.85
|
|
#SCROLL 1
|
|
000000000000000000000000000000080000000000000000,
|
|
#BPMCHANGE 160
|
|
100000000000100000000000100000000000000000500000,
|
|
000000000000000000000008000000000000000000000000,
|
|
#BPMCHANGE 162.17
|
|
#SCROLL 0.98
|
|
100000000000100000000000100000000000000000000000,
|
|
#BPMCHANGE 159.63
|
|
#SCROLL 1
|
|
100000000000000000000000300000000000300000000000,
|
|
000000000000200000000000200000000000000000000000,
|
|
000000000000200000000000200000000000000000000000,
|
|
#BPMCHANGE 160.64
|
|
#SCROLL 0.99
|
|
000000000000200000000000200000000000000000700000,
|
|
000000000000000000000000000000008000000000000000,
|
|
#BPMCHANGE 158.79
|
|
#SCROLL 1
|
|
100000000000000000000000100000000000000000000000,
|
|
100000000000100000000000100000000000000000000000,
|
|
#BPMCHANGE 160.94
|
|
#SCROLL 0.99
|
|
100000000000100000000000100000000000000000700000,
|
|
000000000000000000000000000000008000000000000000,
|
|
#BPMCHANGE 158.11
|
|
#SCROLL 1.01
|
|
100000000000000000000000100000000000000000000000,
|
|
#BPMCHANGE 160.56
|
|
#SCROLL 0.99
|
|
100000000000100000000000100000000000000000000000,
|
|
#BPMCHANGE 161.18
|
|
100000000000100000000000100000000000000000700000,
|
|
#BPMCHANGE 158.76
|
|
#SCROLL 1
|
|
000000000000000000000000000000080000000000000000,
|
|
#BPMCHANGE 159.88
|
|
#GOGOEND
|
|
100000000000000000000000000000000000000000500000,
|
|
#BPMCHANGE 158.4
|
|
#SCROLL 1.01
|
|
000000000000000000000000000008000000000000000000,
|
|
#BPMCHANGE 160.56
|
|
#SCROLL 0.99
|
|
100000000000000000000000000000000000000000500000,
|
|
#BPMCHANGE 159.32
|
|
#SCROLL 1
|
|
000000000000000000000000000000000008000000000000,
|
|
#BPMCHANGE 160.79
|
|
#SCROLL 0.99
|
|
000000000000100000000000000000000000100000000000,
|
|
000000000000100000000000000000000000100000000000,
|
|
#BPMCHANGE 160.56
|
|
000000000000100000000000000000000000100000000000,
|
|
#BPMCHANGE 159.01
|
|
#SCROLL 1
|
|
000000000000100000000000000000000000100000000000,
|
|
#BPMCHANGE 158.4
|
|
#SCROLL 1.01
|
|
900000000000000000000000000000000000000000000000,
|
|
#BPMCHANGE 160.56
|
|
#SCROLL 0.99
|
|
000000000000000000000000000000000000000000000000,
|
|
#BPMCHANGE 160.32
|
|
000000000000000000000000000000000000000000090000,
|
|
000000000000000000000000000000000000000000800000,
|
|
|
|
|
|
#END |