forked from ESE/ESE
173 lines
5.6 KiB
Plaintext
173 lines
5.6 KiB
Plaintext
//TJADB Project
|
||
TITLE:Atarashii Hikari
|
||
TITLEJA:新しい光
|
||
SUBTITLE:--Voyager/Ultra Galaxy Legend Gaiden: Ultraman Zero ℣ Darkrops Zero
|
||
SUBTITLEJA:9mm Parabellum bullet
|
||
BPM:131
|
||
WAVE:Atarashii Hikari.ogg
|
||
OFFSET:-2.006
|
||
DEMOSTART:34.944
|
||
|
||
COURSE:Oni
|
||
LEVEL:6
|
||
SCOREINIT:1380
|
||
SCOREDIFF:380
|
||
|
||
|
||
#START
|
||
|
||
|
||
100000100000200000000000100100100000200000100000,
|
||
000000100000200000100100100000100000200000000000,
|
||
100000100000200000000000100100100000200000100000,
|
||
000000100000200000100100200000100000200000000000,
|
||
100000100000200000000000100100100000200000100000,
|
||
000000100000200000100100100000100000200000300000,
|
||
000000100000200000100100100000100000200000300000,
|
||
000000100000200000100100100000100000200000500000,
|
||
000000000000000000000000000000000000000000000000,
|
||
000000000000000000000008000000000000000000000000,
|
||
|
||
#GOGOSTART
|
||
100000100100200000100000100000100100200000100000,
|
||
100000200200200000100000100000200200200000100000,
|
||
100000100100200000100000100000100100200000100000,
|
||
300000000000400000300000000000300000000000000000,
|
||
100000100100200000100000100000100100200000100000,
|
||
100000200200200000100000100000200200200000100000,
|
||
100000100100200000100000100100100100100000000000,
|
||
300000000000300000600000000000000008000000000000,
|
||
100000100100200000100000100000100100200000200000,
|
||
100000200200200000100000100000200200200000200000,
|
||
100000100100200000100000100000100100200000200000,
|
||
300000000000400000300000000000300000000000000000,
|
||
300000000000400000300000000000400000300000000000,
|
||
400000000000300000300000300000000300000000300000,
|
||
600000000000000000000000000000000000000000000008,
|
||
|
||
#GOGOEND
|
||
|
||
|
||
#END
|
||
|
||
|
||
COURSE:Hard
|
||
LEVEL:5
|
||
|
||
|
||
#START
|
||
|
||
|
||
100000100000200000000000100000100000200000100000,
|
||
000000100000200000000000100000000000200000000000,
|
||
100000100000200000000000100000100000200000100000,
|
||
000000100000200000000000200000000000100000000000,
|
||
100000100000200000000000100000100000200000100000,
|
||
000000100000200000000000100000000000200000100000,
|
||
000000100000200000000000100000000000200000100000,
|
||
000000100000200000000000100000000000200000500000,
|
||
000000000000000000000000000000000000000000000000,
|
||
000000000000000000800000000000000000000000000000,
|
||
#GOGOSTART
|
||
100000100000200000000000100000100100100000000000,
|
||
100000100000200000000000100000100100100000000000,
|
||
100000100000200000000000100000100100100000000000,
|
||
300000000000300000300000000000300000000000000000,
|
||
100000000000200000100000000000100000200000000000,
|
||
100000000000200000100000000000100000200000000000,
|
||
100000100000200000000000100000100000200000000000,
|
||
300000000000300000600000000000000800000000000000,
|
||
100000100000200000000000100000100100100000000000,
|
||
100000100000200000000000100000100100100000000000,
|
||
100000100000200000000000100000100100100000000000,
|
||
300000000000300000300000000000300000000000000000,
|
||
300000000000000000300000000000000000300000000000,
|
||
000000000000300000000000300000000300000000300000,
|
||
600000000000000000000000000000000000000000000800,
|
||
|
||
#GOGOEND
|
||
|
||
|
||
#END
|
||
|
||
|
||
COURSE:Normal
|
||
LEVEL:4
|
||
|
||
|
||
#START
|
||
|
||
|
||
100000000000100000000000100000000000000000000000,
|
||
200000000000000000000000000000000000000000000000,
|
||
100000000000100000000000100000000000000000000000,
|
||
200000000000000000000000200000000000000000000000,
|
||
100000000000100000000000100000000000000000000000,
|
||
200000000000000000000000000000000000000000000000,
|
||
100000000000100000000000100000000000000000000000,
|
||
200000000000200000000000200000000000000000000000,
|
||
500000000000000000000000000000000000000000000000,
|
||
000000000000000000800000000000000000000000000000,
|
||
#GOGOSTART
|
||
100000000000100000100000100000000000200000000000,
|
||
100000000000100000000000100000000000000000000000,
|
||
100000000000100000100000100000000000200000000000,
|
||
100000000000100000000000100000000000000000000000,
|
||
100000000000100000000000200000000000000000000000,
|
||
100000000000100000000000200000000000000000000000,
|
||
300000000000300000000000300000000000000000000000,
|
||
600000000000000000800000000000000000000000000000,
|
||
100000000000100000100000100000000000200000000000,
|
||
100000000000100000000000100000000000000000000000,
|
||
100000000000100000100000100000000000200000000000,
|
||
100000000000100000000000100000000000000000000000,
|
||
300000000000000000300000000000000000300000000000,
|
||
000000000000300000000000300000000000000000000000,
|
||
600000000000000000000000000000000000000000000800,
|
||
|
||
#GOGOEND
|
||
|
||
|
||
#END
|
||
|
||
|
||
COURSE:Easy
|
||
LEVEL:3
|
||
|
||
|
||
#START
|
||
|
||
|
||
100000000000000000000000100000000000000000000000,
|
||
100000000000000000000000000000000000000000000000,
|
||
100000000000000000000000100000000000000000000000,
|
||
100000000000000000000000200000000000000000000000,
|
||
100000000000000000000000100000000000000000000000,
|
||
100000000000000000000000000000000000000000000000,
|
||
100000000000100000000000100000000000000000000000,
|
||
100000000000100000000000100000000000000000000000,
|
||
500000000000000000000000000000000000000000000000,
|
||
000000000000000000800000000000000000000000000000,
|
||
#GOGOSTART
|
||
100000000000100000000000100000000000000000000000,
|
||
100000000000100000000000100000000000000000000000,
|
||
200000000000000000000000200000000000000000000000,
|
||
100000000000100000000000100000000000000000000000,
|
||
100000000000000000000000200000000000000000000000,
|
||
100000000000000000000000200000000000000000000000,
|
||
300000000000300000000000300000000000000000000000,
|
||
600000000000000000800000000000000000000000000000,
|
||
100000000000100000000000100000000000000000000000,
|
||
100000000000100000000000100000000000000000000000,
|
||
200000000000000000000000200000000000000000000000,
|
||
100000000000100000000000100000000000000000000000,
|
||
300000000000000000300000000000000000300000000000,
|
||
000000000000300000000000300000000000000000000000,
|
||
600000000000000000000000000000000000000000000800,
|
||
|
||
#GOGOEND
|
||
|
||
|
||
#END
|
||
|