Files
2023-06-15 19:15:39 -05:00

354 lines
14 KiB
Plaintext

//TJADB Project
TITLE:BLAZING
TITLEJA:BLAZING
SUBTITLE:--GARNiDELiA/Gundam Reconguista in G
SUBTITLEJA:「ガンダム Gのレコンギスタ」より
BPM:151
WAVE:BLAZING.ogg
OFFSET:-2.089
DEMOSTART:54.208
COURSE:Oni
LEVEL:7
SCOREINIT:790
SCOREDIFF:220
#START
000000000000000000000000000000000000000000000000,
100000100000200000200000100000100000200000200000,
000000100000100000200000100000100000200000100000,
#BPMCHANGE 152
200000000000000000000000000000000000000000000000,
#BARLINEOFF
#BPMCHANGE 190
000000000000000000000000100100100100200000000000,
#BARLINEON
100100100000200000000000200000000000100100100000,
200000000000200000000000100100100000200000200000,
100100100000200000000000200000000000100100100000,
200200200000200000000000200000200200100000200000,
100100100000200000000000200000000000100100100000,
200000000000200000000000200000100100200000200000,
300000000000300000300000000000300000600000000000,
000008000000000000300000300000400000000000000000,
100000000000200000000000100000200000000000100000,
000000200000000000200000000000200000200000000000,
100000000000200000000000100000200000000000200000,
000000200000000000500000000000000008000000000000,
100000000000200000000000100000200000000000100000,
000000200000000000100000200000100000200200200000,
200000000000200000100000000000100000200000000000,
200000100000000000100000200000000000200000000000,
100000100000200000000000100000200000000000100000,
000000200200200000200000000000200000200000000000,
100000100000200000000000100000200000000000200200,
200000200000000000200000000000200000200000000000,
100000100000200000000000100000200000000000100000,
000000200200200000200000000000200000200000500000,
000000000008000000500000000008000000500000000000,
000000000000000008000000000000300000300000300000,
200000000000200000200000100000100000000000200000,
000000200000200000100000100000000000200000000000,
200000100000000000100000000000200000000000100000,
000000100000200000000000200000200000100000100000,
200000000000200000200000100000100000000000200000,
000000200000200000100000100000000000200000000000,
200000100000000000100000000000200000000000100000,
000000200000000000100000000000200000000000000000,
100000000000100000000000100000000000100000000000,
100000100000100000100000100000100000100000100000,
100100100000100100100000100100100000300000300000,
000000000000000000000000000000000000000000000000,
#GOGOSTART
100000100100200000100000200000100100200000200000,
000000200000000000100000200000000000200000000000,
100000100100200000100000200000100100200000200000,
000000200000000000100000200000100100200000200000,
000000000000200000000000200000200000000000400000,
000000400000000000400000000000400000000000200000,
100100100000200000100000000000100000000000200000,
000000200000100000200000100000200200200200200000,
100000100100200000100000200000100100200000200000,
000000200000000000100000200000000000200000000000,
100000100100200000100000200000100100200000100000,
000000100000200000100000200000100100200000200000,
000000000000400000000000400000000000200000200000,
000000200000200000200000000000200000000000000000,
100100100000200000100000000000200000000000200200,
200000100000200000100000200000100000200000100000,
600000000000000000000000000000000000000008000000,
#GOGOEND
200000000000200000000000100100100000200000200000,
100100100000200000000000200000000000100100100000,
200200200000200000000000200000200200100000200000,
100100100000200000000000200000000000100100100000,
200000000000200000000000200000100100200000200000,
300000000000300000300000000000300000600000000000,
000000000008000000400000300000400000300000600000,
000000000000000000000000000000000008000000300000,
#END
COURSE:Hard
LEVEL:6
SCOREINIT:760
SCOREDIFF:230
#START
000000000000000000000000000000000000000000000000,
100000100000200000200000100000100000200000200000,
000000100000100000200000100000100000200000100000,
200000000000000000000000000000000000000000000000,
#barlineoff
#BPMCHANGE 190
000000000000000000000000600000800000000000000000,
#barlineon
100000100000200000000000200000000000100000100000,
200000000000200000000000100000100000200000200000,
100000100000200000000000200000000000100000100000,
200000000000200000000000200000200000100000100000,
100000100000200000000000200000000000100000100000,
200000000000200000000000200000200000100000100000,
300000000000300000300000000000300000600000000000,
800000000000000000300000300000400000000000000000,
100000000000100000000000100000200000000000100000,
000000100000000000100000000000100000200000000000,
100000000000100000000000100000200000000000100000,
000000100000000000500000000000800000000000000000,
100000000000100000000000100000200000000000100000,
000000100000000000100000000000100000200000000000,
200000000000000000200000000000000000200000000000,
000000200000000000000000200000000000200000000000,
100000100000200000000000100000200000000000100000,
000000200000000000200000000000100000200000000000,
100000100000200000000000100000200000000000200000,
000000200000000000500000000000800000000000000000,
100000100000200000000000100000200000000000100000,
000000200000000000200000000000100000200000500000,
000000000000000000000000000000000000000000000000,
000000000000800000000000000000300000300000300000,
100000000000200000200000100000100000000000200000,
000000200000200000100000100000000000200000000000,
100000100000000000100000000000200000000000100000,
000000100000200000000000100000200000100000200000,
100000000000200000200000100000100000000000200000,
000000200000200000100000100000000000200000000000,
100000100000000000100000000000200000000000100000,
000000200000000000100000000000200000000000000000,
100000000000100000000000100000000000100000000000,
100000100000100000000000100000100000100000000000,
100100100000100000000000100100100000300000300000,
000000000000000000000000000000000000000000000000,
#GOGOSTART
100000000000200000100000100000100000200000100000,
000000200000000000100000200000000000200000000000,
100000000000200000100000100000100000200000100000,
000000200000000000100000200000100000200000200000,
000000000000200000000000200000200000000000400000,
000000400000000000400000000000400000000000100000,
200000100000000000200000000000200000000000100000,
000000100000200000100000200000000000000000000000,
100000000000200000100000100000100000200000100000,
000000200000000000100000200000000000200000000000,
100000000000200000100000100000100000200000100000,
000000100000200000100000200000100000200000200000,
000000000000400000000000400000000000200000200000,
000000200000200000200000000000200000000000000000,
100000200000000000200000000000200000000000200000,
000000100000200000100000200000100000200000100000,
600000000000000000000000000000000000800000000000,
#GOGOEND
000000000000000000000000000000000000000000000000,
100000100000200000000000200000000000100000100000,
200000000000200000000000200000200000100000100000,
100000100000200000000000200000000000100000100000,
200000000000200000000000200000200000100000100000,
300000000000300000300000000000300000600000000000,
000000800000000000400000300000400000300000600000,
000000000000000000000000000000800000000000300000,
#END
COURSE:Normal
LEVEL:6
SCOREINIT:850
SCOREDIFF:270
#START
000000000000000000000000000000000000000000000000,
100000100000200000200000100000100000200000200000,
000000100000100000200000100000100000200000100000,
200000000000000000000000000000000000000000000000,
#barlineoff
#BPMCHANGE 190
000000000000000000000000600000800000000000000000,
#barlineon
100000100000200000000000200000000000100000100000,
200000000000200000000000100000100000200000200000,
100000100000200000000000200000000000100000100000,
200000000000200000000000200000200000100000100000,
100000100000200000000000200000000000100000100000,
200000000000200000000000200000200000100000100000,
300000000000300000300000000000300000600000000000,
800000000000000000300000300000400000000000000000,
100000000000100000000000100000200000000000100000,
000000100000000000100000000000100000200000000000,
100000000000100000000000100000200000000000100000,
000000100000000000500000000000800000000000000000,
100000000000100000000000100000200000000000100000,
000000100000000000100000000000100000200000000000,
200000000000000000200000000000000000200000000000,
000000200000000000000000200000000000200000000000,
100000100000200000000000100000200000000000100000,
000000200000000000200000000000100000200000000000,
100000100000200000000000100000200000000000200000,
000000200000000000500000000000800000000000000000,
100000100000200000000000100000200000000000100000,
000000200000000000200000000000100000200000500000,
000000000000000000000000000000000000000000000000,
000000000000800000000000000000300000300000300000,
100000000000200000200000100000100000000000200000,
000000200000200000100000100000000000200000000000,
100000100000000000100000000000200000000000100000,
000000100000200000000000100000200000100000200000,
100000000000200000200000100000100000000000200000,
000000200000200000100000100000000000200000000000,
100000100000000000100000000000200000000000100000,
000000200000000000100000000000200000000000000000,
100000000000100000000000100000000000100000000000,
100000100000100000000000100000100000100000000000,
100100100000100000000000100100100000300000300000,
000000000000000000000000000000000000000000000000,
#GOGOSTART
100000000000200000100000100000100000200000100000,
000000200000000000100000200000000000200000000000,
100000000000200000100000100000100000200000100000,
000000200000000000100000200000100000200000200000,
000000000000200000000000200000200000000000400000,
000000400000000000400000000000400000000000100000,
200000100000000000200000000000200000000000100000,
000000100000200000100000200000000000000000000000,
100000000000200000100000100000100000200000100000,
000000200000000000100000200000000000200000000000,
100000000000200000100000100000100000200000100000,
000000100000200000100000200000100000200000200000,
000000000000400000000000400000000000200000200000,
000000200000200000200000000000200000000000000000,
100000200000000000200000000000200000000000200000,
000000100000200000100000200000100000200000100000,
600000000000000000000000000000000000800000000000,
#GOGOEND
000000000000000000000000000000000000000000000000,
100000100000200000000000200000000000100000100000,
200000000000200000000000200000200000100000100000,
100000100000200000000000200000000000100000100000,
200000000000200000000000200000200000100000100000,
300000000000300000300000000000300000600000000000,
000000800000000000400000300000400000300000600000,
000000000000000000000000000000800000000000300000,
#END
COURSE:Easy
LEVEL:4
BALLOON:11
SCOREINIT:750
SCOREDIFF:300
#START
000000000000000000000000000000000000000000000000,
100000000000000000000000100000000000000000200000,
000000000000000000000000000000000000000000000000,
000000000000000000000000000000000000000000000000,
#barlineoff
#BPMCHANGE 190
000000000000000000000000000000000000000000000000,
#barlineon
100000000000200000000000000000000000100000000000,
200000000000000000000000200000000000000000000000,
100000000000200000000000000000000000100000000000,
200000000000000000000000200000000000000000000000,
100000000000200000000000000000000000100000000000,
200000000000000000000000200000000000000000000000,
300000000000000000300000000000000000600000000000,
000000000000000000000000800000000000000000000000,
100000000000000000000000100000000000000000100000,
000000000000000000000000000000000000000000000000,
100000000000000000000000100000000000000000500000,
000000000000000000000000800000000000000000000000,
100000000000000000000000100000000000000000100000,
000000000000000000000000000000000000000000000000,
200000000000000000200000000000000000200000000000,
000000200000000000000000200000000000000000000000,
100000000000100000000000100000000000000000100000,
000000100000000000100000000000000000000000000000,
100000000000100000000000100000000000000000500000,
000000000000000000000000800000000000000000000000,
100000000000100000000000100000000000000000100000,
000000100000000000100000000000000000000000500000,
000000000000000000000000000000000000000000000000,
000000000000800000000000000000000000000000000000,
100000000000100000000000100000000000000000100000,
000000000000000000000000000000000000000000000000,
100000000000000000100000000000100000000000100000,
000000000000100000000000100000000000000000000000,
100000000000100000000000100000000000000000100000,
000000000000000000000000000000000000000000000000,
100000000000000000100000000000100000000000100000,
000000100000000000100000000000100000000000000000,
100000000000100000000000100000000000100000000000,
300000000000300000000000300000000000300000000000,
600000000000000000800000000000000000300000300000,
000000000000000000000000000000000000000000000000,
#GOGOSTART
100000000000200000000000100000000000000000100000,
000000200000000000000000000000000000000000000000,
100000000000200000000000100000000000000000200000,
000000200000000000000000000000000000000000000000,
100000000000100000000000100000000000000000400000,
000000400000000000400000000000400000000000000000,
100000000000100000000000100000000000000000200000,
000000000000200000000000200000000000000000000000,
100000000000200000000000100000000000000000100000,
000000200000000000000000000000000000000000000000,
100000000000200000000000100000000000000000200000,
000000200000000000000000000000000000000000000000,
000000000000300000000000300000000000000000200000,
000000200000000000200000000000200000000000000000,
100000000000100000000000100000000000000000200000,
000000000000200000000000600000000000000000000000,
000000000000000000000000000000000000800000000000,
#GOGOEND
000000000000000000000000000000000000000000000000,
100000000000200000000000000000000000100000000000,
200000000000000000000000200000000000000000000000,
100000000000200000000000000000000000100000000000,
200000000000000000000000200000000000000000000000,
300000000000000000300000000000000000900000000000,
000000000000000000000000000000000000000000000000,
000000000000000000000000000000000000800000000000,
#END