Files
2023-06-15 19:15:39 -05:00

485 lines
5.9 KiB
Plaintext
Raw Permalink Blame History

This file contains ambiguous Unicode characters
This file contains Unicode characters that might be confused with other characters. If you think that this is intentional, you can safely ignore this warning. Use the Escape button to reveal them.
//TJADB Project
TITLE:BLUE SAPPHIRE
TITLEJA:BLUE SAPPHIRE
SUBTITLE:--Hiroomi Tosaka/Detective Conan: The Fist of Blue Sapphire
SUBTITLEJA:「名探偵コナン 紺青の拳」より
BPM:99
WAVE:BLUE SAPPHIRE.ogg
OFFSET:-2.516
DEMOSTART:60.880
COURSE:Edit
LEVEL:8
SCOREINIT:720
SCOREDIFF:198
#START
#BARLINEOFF
#MEASURE 1/4
,
#BARLINEON
#MEASURE 4/4
1012020010120200,
1012020011121112,
1012020010120200,
10001020002000001000000022202220,
10001020002011101000102220102220,
10001020002010201010102010102220,
10001020101022201000102010102220,
10001022201020001000111120002220,
#GOGOSTART
10000020100020111020002010002220,
10000020100020102220222010002220,
10000020100020111020002010002220,
10000020000020001000111120002220,
#GOGOEND
1012021022101022,
10001020002010002020100010002220,
10001020002010002020100010002020,
10001020002010002020001000201110,
1012102011121020,
10001020100020001010102010001110,
1012102011121020,
10000010000010001020200020001110,
2011102020101020,
2010112010102020,
11101011102220001110101110222000,
100100100000100000100100100000100100100020002000100000000000000000000000000000000000100100100000,
1012020010120200,
1012020011121112,
1012020010120200,
10001020002000001000000022202220,
10001020002011101000102220102220,
1012021211121120,
11101011102220001110101110222000,
100100100000100000100100100000100100100020002000100000000000100100100100200000000000200200200000,
#GOGOSTART
10000020100020111020002010002220,
10000020100020102220222010002220,
10000020100020111020002010002220,
10000020000020001000111120002220,
#MEASURE 1/16
#SCROLL 1
,
#SCROLL 1.08
,
#SCROLL 1.17
,
#SCROLL 1.26
,
#SCROLL 1.36
,
#SCROLL 1.47
,
#SCROLL 1.59
,
#SCROLL 1.72
,
#SCROLL 1.85
,
#SCROLL 2
,
#SCROLL 2.16
,
#SCROLL 2.34
,
#SCROLL 2.52
,
#SCROLL 2.72
,
#SCROLL 2.94
,
#SCROLL 3.18
,
#SCROLL 3.43
4,
#GOGOEND
#END
COURSE:Oni
LEVEL:6
SCOREINIT:920
SCOREDIFF:278
#START
#BARLINEOFF
#MEASURE 1/4
03,
#BARLINEON
#MEASURE 4/4
3002202201111030,
3002202202101110,
0021021001111020,
0021021001111030,
3002202202101030,
3022010120202020,
1017000801111020,
0000000002222040,
#GOGOSTART
1022001110221020,
1022002220221020,
1022001110221020,
1022002030220122,
#GOGOEND
1020000210200002,
1020202211000000,
1022020010220200,
1021020030000022,
1020100210201002,
1020102212001020,
1021012010210120,
3021021030000010,
2012201220122050,
000000000000000008000000000000000000000000100000,
2012201220122050,
000000000008000000700000000000800000000000300000,
3002202201111030,
3002202202101110,
0021021001111020,
0021021001111030,
3002202202101030,
3022010120202020,
1017000801111020,
0000000002222040,
#GOGOSTART
1022001210221022,
1022002220221022,
1022001210221022,
1022002030000000,
#MEASURE 1/16
#SCROLL 1
,
#SCROLL 1.08
,
#SCROLL 1.17
,
#SCROLL 1.26
,
#SCROLL 1.36
,
#SCROLL 1.47
,
#SCROLL 1.59
,
#SCROLL 1.72
,
#SCROLL 1.85
,
#SCROLL 2
,
#SCROLL 2.16
,
#SCROLL 2.34
,
#SCROLL 2.52
,
#SCROLL 2.72
,
#SCROLL 2.94
,
#SCROLL 3.18
,
#SCROLL 3.43
4,
#GOGOEND
#END
COURSE:Hard
LEVEL:6
SCOREINIT:1070
SCOREDIFF:360
#START
#BARLINEOFF
#MEASURE 1/4
03,
#BARLINEON
#MEASURE 4/4
30220223,
30220220,
0010010001111020,
0010010001111030,
30220223,
3010010020202020,
7000000801111020,
0000000002222040,
#GOGOSTART
1000001010111020,
1000001010111020,
1000001010111020,
13,
#GOGOEND
12001200,
1020201111000000,
2002000020020000,
2002000030000000,
12101210,
1020101111000000,
2002002020020010,
1001003030000020,
2022202220222050,
50000000000000000000000800000000
00000000000000000000000020000000,
2022202220222070,
00000803,
30220223,
30220220,
0010010001111020,
0010010001111030,
30220223,
3010010020202020,
7000000801111020,
0000000002222040,
#GOGOSTART
1020002010111020,
1020002010111020,
1020002010111020,
1020002030000000,
#MEASURE 1/16
#SCROLL 1
,
#SCROLL 1.06034
,
#SCROLL 1.12433
,
#SCROLL 1.19218
,
#SCROLL 1.26412
,
#SCROLL 1.3404
,
#SCROLL 1.42129
,
#SCROLL 1.50706
,
#SCROLL 1.598
,
#SCROLL 1.70109
,
#SCROLL 1.81083
,
#SCROLL 1.92765
,
#SCROLL 2.05201
,
#SCROLL 2.18438
,
#SCROLL 2.3253
,
#SCROLL 2.47531
,
#SCROLL 2.635
4,
#BARLINEOFF
,
#GOGOEND
,
#END
COURSE:1
LEVEL:3
SCOREINIT:1370,8490
SCOREDIFF:1005
#START
#BARLINEOFF
#MEASURE 1/4
03,
#BARLINEON
#MEASURE 4/4
30000003,
3,
1001,
20000003,
30000003,
3011,
78,
2,
#GOGOSTART
10011010,
10011010,
10011010,
13,
#GOGOEND
11001100,
1110,
11,
13,
11001100,
1110,
11,
13,
11101150,
00000000000000000000000800000000
00000000000000000000000000000000,
11101170,
00000803,
30000003,
3,
1001,
20000003,
30000003,
30001111,
78,
2,
#GOGOSTART
10011011,
10011011,
10011011,
13,
#MEASURE 1/16
#SCROLL 1
,
#SCROLL 1.05167
,
#SCROLL 1.10602
,
#SCROLL 1.16317
,
#SCROLL 1.22327
,
#SCROLL 1.28649
,
#SCROLL 1.35296
,
#SCROLL 1.42288
,
#SCROLL 1.4964
,
#SCROLL 1.58283
,
#SCROLL 1.67425
,
#SCROLL 1.77096
,
#SCROLL 1.87325
,
#SCROLL 1.98144
,
#SCROLL 2.09589
,
#SCROLL 2.21695
,
#SCROLL 2.345
4,
#BARLINEOFF
,
#GOGOEND
,
#END
COURSE:0
LEVEL:2
SCOREINIT:1360,13210
SCOREDIFF:1355
#START
#BARLINEOFF
#MEASURE 1/4
,
#BARLINEON
#MEASURE 4/4
3,
3,
1,
2,
3,
3011,
78,
2,
#GOGOSTART
11,
1,
11,
13,
#GOGOEND
11,
1110,
11,
13,
11,
1110,
11,
13,
1115,
00000000000000000000000800000000
00000000000000000000000000000000,
1117,
00000800,
3,
3,
1,
2,
3,
3011,
78,
2,
#GOGOSTART
1011,
1011,
1011,
13,
#MEASURE 1/16
#SCROLL 1
,
#SCROLL 1.04388
,
#SCROLL 1.0897
,
#SCROLL 1.13752
,
#SCROLL 1.18743
,
#SCROLL 1.23954
,
#SCROLL 1.29394
,
#SCROLL 1.35073
,
#SCROLL 1.41
,
#SCROLL 1.47739
,
#SCROLL 1.54801
,
#SCROLL 1.622
,
#SCROLL 1.69952
,
#SCROLL 1.78076
,
#SCROLL 1.86587
,
#SCROLL 1.95505
,
#SCROLL 2.0485
4,
#BARLINEOFF
,
#GOGOEND
,
#END