Files
2023-06-15 19:15:39 -05:00

775 lines
31 KiB
Plaintext

//TJADB Project
TITLE:Bakuchi Dancer
TITLEJA:バクチ・ダンサー
SUBTITLE:--DOES/Gintama
SUBTITLEJA:「劇場版 銀魂 新訳紅桜篇」より
BPM:151
WAVE:Bakuchi Dancer.ogg
OFFSET:-1.588
DEMOSTART:50.071
COURSE:Oni
LEVEL:8
SCOREINIT:520
SCOREDIFF:138
#START
000000000000000000000000000000000000000000000000,
100100100100100100100100100100100100100100100100,
100100100100100100100100100100100100200000000000,
300000000300000000300000000000000000000000000000,
400000000400000000400000000000000000000000000000,
300000000300000000300000000000000000000000000000,
400000000400000000400000000000100100200000000000,
100000000200100000200000100000100000200000200000,
100000000200100000200000100000100000200000000000,
100000000200100000200000100000100000200000200000,
100000000200100000200000000000100000000000000000,
300000000300000000300000400000000400000000400000,
300000000300000000300000100100200200100000200000,
300000000300000000300000400000000400000000400000,
300000000300000000300000100100000000400000000000,
100000000100200000200200100100100000200000000000,
100000000100200000200100200100100000200000000000,
100000000100200000200200100100100000200000000000,
100000000100200000200100200100100000200000000000,
100000000100200000200200100100100000200000200200,
100000000100200000200100200100100000200000200200,
100000000100200000200200100100100000200000200200,
100000000100200000200200100100100100100100100100,
200000100100200000100000200000100100200000100000,
200000100100200000100000200100100100200000100000,
200000100100200000100000200000100100200000100000,
200000100100200000100000200100100100200000100000,
200000100100200000100000200000100100200000100000,
200000100100200000100000200100100100200000100000,
500000000000000000000000000000000000000000000008,
000000000000000000000000000000000000400000000000,
#GOGOSTART
100200000100100000200000100200000100100000200000,
100200000100100000200000100100200200100000200000,
100200000100100000200000100200000100100000200000,
100200000100100000200000100200100100100000200000,
100200000100100000200000100200000100100000200000,
100200000100100000200000300000000000300000400000,
000000400000000000000000300000000000300000400000,
000000400000000000100000100000000000200000000000,
#GOGOEND
300000000300000000300000400000000400000000400000,
300000000300000000300000100100200200100000200000,
300000000300000000300000400000000400000000400000,
300000000300000000100200100100000000400000000000,
100000100100200000200200100100100000200000000000,
100000100100200000200100200100100000200000000000,
100000100100200000200200100100100000200000000000,
100000100100200000200100200100100000200000000000,
100000100100200000200100100200100000200000200200,
100000100100200000200100200100100000200000200200,
100000100100200000200100100200100000200000200200,
100000100100200000200200100100100100100100100100,
200000100100200000100000200000100100200000100000,
200000100100200000100000200100100100200000100000,
200000100100200000100000200000100100200000100000,
200000100100200000100000200100100100200000100100,
200000100100200000100100200000100100200000100100,
200000100100200000100100200100100100200000100000,
500000000000000000000000000000000000000000000008,
000000000000000000000000000000000000400000000000,
#GOGOSTART
100200000100100000200000100200000100100000200000,
100200000100100000200000100100200200100000200000,
100200000100100000200000100200000100100000200000,
100200000100100000200000100200100100100000200000,
100200000100100000200000100200000100100000200000,
100200000100100000200000300000000000300000400000,
000000400000000000000000300000000000300000400000,
000000400000100100100100200200200200100100100100,
#GOGOEND
200000000000000000000000000000000000000000000000,
#END
COURSE:Hard
LEVEL:6
STYLE:Double
BALLOON:20
SCOREINIT:630
SCOREDIFF:180
#START P1
000000000000000000000000000000000000000000000000,
700000000000000000000000000000000000000000000000,
000000000000000000000000000000800000200000000000,
300000000300000000300000000000000000000000000000,
400000000400000000400000000000000000000000000000,
300000000300000000300000000000000000000000000000,
400000000400000000400000000000100100200000000000,
00001122,
00001120,
00001122,
00001000,
100000000100000000100000200000000200000000200000,
100000000100000000100000100100100100100000000000,
100000000100000000100000200000000200000000200000,
100000000100000000100000100100000000200000000000,
100000000100100000100000000000100000100000000000,
100000000100100000100000000000100000200000000000,
100000000100100000100000000000100000100000000000,
100000000100100000100000000000100000200000000000,
100000000100100000100000000000100000100000000000,
100000000100100000100000000000100000200000000000,
100000000100100000100000000000100000100000000000,
100000000100100000100000300000000000300000000000,
400000000000200000000000200000100000200000000000,
200000100000200000000000200000100000200000000000,
200000000000200000000000200000100000200000000000,
200000100000200000000000200000100000200000000000,
200000000000200000000000200000100000200000000000,
200000100000200000000000200000100000200000100000,
500000000000000000000000000000000000000000000008,
000000000000000000000000000000000000400000000000,
#GOGOSTART
100000000100100000100000100000000100100000100000,
100000000100100000100000100000000000000000000000,
100000000100100000100000100000000100100000100000,
100000000100100000100000100000000000000000000000,
100000000100100000100000100000000100100000100000,
100000000100100000100000300000000000300000400000,
000000400000000000000000300000000000300000400000,
000000400000000000100000100000000000200000000000,
#GOGOEND
100000000100000000100000200000000200000000200000,
100000000100000000100000100100100100100000000000,
300000000300000000300000400000000400000000400000,
300000000300000000300000100100000000200000000000,
100000000100100000100000000000100000100000000000,
100000000100100000100000000000100000200000000000,
100000000100100000100000000000100000100000000000,
100000000100100000100000000000100000200000000000,
100000000100100000100000000000100000100000000000,
100000000100100000100000000000100000200000000000,
100000000100100000100000000000100000100000000000,
100000000100100000100000300000000000300000000000,
400000000000200000000000200000100000200000000000,
200000100000200000000000200000100000200000000000,
200000000000200000000000200000100000200000000000,
200000100000200000000000200000100000200000000000,
200000000000200000000000200000100000200000000000,
200000100000200000000000200000100000200000100000,
500000000000000000000000000000000000000000000008,
000000000000000000000000000000000000400000000000,
#GOGOSTART
100000000100100000100000100000000100100000100000,
100000000100100000100000100000000000100000000000,
100000000100100000100000100000000100100000100000,
100000000100100000100000100000000000200000000000,
100000000100100000100000100000000100100000100000,
100000000100100000100000300000000000300000400000,
000000400000000000000000300000000000300000400000,
000000400000000000100000100000100000100100100100,
#GOGOEND
100000000000000000000000000000000000000000000000,
#END
#START P2
000000000000000000000000000000000000000000000000,
700000000000000000000000000000000000000000000000,
000000000000000000000000000000800000200000000000,
00001122,
00001120,
00001122,
0000000000112000,
300000000300000000300000000000000000000000000000,
400000000400000000400000000000000000000000000000,
300000000300000000300000000000000000000000000000,
400000000400000000400000000000100000000000000000,
100000000100000000100000200000000200000000200000,
100000000100000000100000100100100100100000000000,
100000000100000000100000200000000200000000200000,
100000000100000000100000100100000000200000000000,
100000000100100000100000000000100000100000000000,
100000000100100000100000000000100000200000000000,
100000000100100000100000000000100000100000000000,
100000000100100000100000000000100000200000000000,
100000000100100000100000000000100000100000000000,
100000000100100000100000000000100000200000000000,
100000000100100000100000000000100000100000000000,
100000000100100000100000300000000000300000000000,
400000000000200000000000200000100000200000000000,
200000100000200000000000200000100000200000000000,
200000000000200000000000200000100000200000000000,
200000100000200000000000200000100000200000000000,
200000000000200000000000200000100000200000000000,
200000100000200000000000200000100000200000100000,
500000000000000000000000000000000000000000000008,
000000000000000000000000000000000000400000000000,
#GOGOSTART
100000000100100000100000100000000100100000100000,
100000000100100000100000100000000000000000000000,
100000000100100000100000100000000100100000100000,
100000000100100000100000100000000000000000000000,
100000000100100000100000100000000100100000100000,
100000000100100000100000300000000000300000400000,
000000400000000000000000300000000000300000400000,
000000400000000000100000100000000000200000000000,
#GOGOEND
100000000100000000100000200000000200000000200000,
100000000100000000100000100100100100100000000000,
300000000300000000300000400000000400000000400000,
300000000300000000300000100100000000200000000000,
100000000100100000100000000000100000100000000000,
100000000100100000100000000000100000200000000000,
100000000100100000100000000000100000100000000000,
100000000100100000100000000000100000200000000000,
100000000100100000100000000000100000100000000000,
100000000100100000100000000000100000200000000000,
100000000100100000100000000000100000100000000000,
100000000100100000100000300000000000300000000000,
400000000000200000000000200000100000200000000000,
200000100000200000000000200000100000200000000000,
200000000000200000000000200000100000200000000000,
200000100000200000000000200000100000200000000000,
200000000000200000000000200000100000200000000000,
200000100000200000000000200000100000200000100000,
500000000000000000000000000000000000000000000008,
000000000000000000000000000000000000400000000000,
#GOGOSTART
100000000100100000100000100000000100100000100000,
100000000100100000100000100000000000100000000000,
100000000100100000100000100000000100100000100000,
100000000100100000100000100000000000200000000000,
100000000100100000100000100000000100100000100000,
100000000100100000100000300000000000300000400000,
000000400000000000000000300000000000300000400000,
000000400000000000100000100000100000100100100100,
#GOGOEND
100000000000000000000000000000000000000000000000,
#END
STYLE:Single
BALLOON:20
SCOREINIT:600
SCOREDIFF:175
#START
000000000000000000000000000000000000000000000000,
700000000000000000000000000000000000000000000000,
000000000000000000000000000000800000200000000000,
300000000300000000300000000000000000000000000000,
400000000400000000400000000000000000000000000000,
300000000300000000300000000000000000000000000000,
400000000400000000400000000000100100200000000000,
100000000100000000100000200000200000200000200000,
100000000100000000100000200000200000200000000000,
100000000100000000100000200000200000200000200000,
100000000100000000100000000000100000000000000000,
100000000100000000100000200000000200000000200000,
100000000100000000100000100100100100100000000000,
100000000100000000100000200000000200000000200000,
100000000100000000100000100100000000200000000000,
100000000100100000100000000000100000100000000000,
100000000100100000100000000000100000200000000000,
100000000100100000100000000000100000100000000000,
100000000100100000100000000000100000200000000000,
100000000100100000100000000000100000100000000000,
100000000100100000100000000000100000200000000000,
100000000100100000100000000000100000100000000000,
100000000100100000100000300000000000300000000000,
400000000000200000000000200000100000200000000000,
200000100000200000000000200000100000200000000000,
200000000000200000000000200000100000200000000000,
200000100000200000000000200000100000200000000000,
200000000000200000000000200000100000200000000000,
200000100000200000000000200000100000200000100000,
500000000000000000000000000000000000000000000008,
000000000000000000000000000000000000400000000000,
#GOGOSTART
100000000100100000100000100000000100100000100000,
100000000100100000100000100000000000000000000000,
100000000100100000100000100000000100100000100000,
100000000100100000100000100000000000000000000000,
100000000100100000100000100000000100100000100000,
100000000100100000100000300000000000300000400000,
000000400000000000000000300000000000300000400000,
000000400000000000100000100000000000200000000000,
#GOGOEND
100000000100000000100000200000000200000000200000,
100000000100000000100000100100100100100000000000,
300000000300000000300000400000000400000000400000,
300000000300000000300000100100000000200000000000,
100000000100100000100000000000100000100000000000,
100000000100100000100000000000100000200000000000,
100000000100100000100000000000100000100000000000,
100000000100100000100000000000100000200000000000,
100000000100100000100000000000100000100000000000,
100000000100100000100000000000100000200000000000,
100000000100100000100000000000100000100000000000,
100000000100100000100000300000000000300000000000,
400000000000200000000000200000100000200000000000,
200000100000200000000000200000100000200000000000,
200000000000200000000000200000100000200000000000,
200000100000200000000000200000100000200000000000,
200000000000200000000000200000100000200000000000,
200000100000200000000000200000100000200000100000,
500000000000000000000000000000000000000000000008,
000000000000000000000000000000000000400000000000,
#GOGOSTART
100000000100100000100000100000000100100000100000,
100000000100100000100000100000000000100000000000,
100000000100100000100000100000000100100000100000,
100000000100100000100000100000000000200000000000,
100000000100100000100000100000000100100000100000,
100000000100100000100000300000000000300000400000,
000000400000000000000000300000000000300000400000,
000000400000000000100000100000100000100100100100,
#GOGOEND
100000000000000000000000000000000000000000000000,
#END
COURSE:Normal
LEVEL:4
STYLE:Double
BALLOON:12,10,10
SCOREINIT:980
SCOREDIFF:368
#START P1
000000000000000000000000000000000000000000000000,
700000000000000000000000000000000000000000000000,
000000000000000000000000800000000000000000000000,
300000000300000000300000000000000000000000000000,
400000000400000000400000000000000000000000000000,
300000000300000000300000000000000000000000000000,
400000000400000000400000000000100000200000000000,
00001110,
00002220,
00001110,
00000300,
500000000000000000000000000000000000000000000000,
000000000000000000000008000000000000000000000000,
600000000000000000000000000000000000000000000000,
000000000000000000000008000000000000000000000000,
100000000000100000100000000000000000000000000000,
200000000000200000200000000000000000000000000000,
100000000000100000100000000000000000000000000000,
200000000000200000200000000000000000000000000000,
100000000000100000100000000000000000000000000000,
200000000000200000200000000000000000000000000000,
100000000000100000000000200000000000000000000000,
100000000000100000000000200000000000000000000000,
100000000000100000000000100000000000100000000000,
100000000000000000000000100000000000000000000000,
100000000000100000000000100000000000100000000000,
100000000000000000000000200000000000000000000000,
100000000000100000000000100000000000100000000000,
100000000000100000000000100000000000100000000000,
500000000000000000000000000000000000000000000008,
000000000000000000000000000000000000000000000000,
#GOGOSTART
100000000000100000100000100000000000100000000000,
100000000000000000000000200000000000200000000000,
100000000000100000100000100000000000100000000000,
100000000000000000000000200000000000200000000000,
100000000000100000100000100000000000100000000000,
100000000000000000000000500000000000000000000000,
000000000008000000000000500000000000000000000000,
000000000008000000000000000000000000000000000000,
#GOGOEND
900000000000000000000000000000000000000000000000,
000000000000800000000000000000000000000000000000,
900000000000000000000000000000000000000000000000,
000000000000800000000000000000000000000000000000,
100000000000100000100000000000000000000000000000,
200000000000200000200000000000000000000000000000,
100000000000100000100000000000000000000000000000,
200000000000200000200000000000000000000000000000,
100000000000100000100000000000000000000000000000,
200000000000200000200000000000000000000000000000,
100000000000100000000000200000000000000000000000,
100000000000100000000000200000000000000000000000,
100000000000100000000000100000000000100000000000,
100000000000000000000000100000000000000000000000,
100000000000100000000000100000000000100000000000,
100000000000000000000000200000000000000000000000,
100000000000100000000000100000000000100000000000,
100000000000100000000000100000000000100000000000,
500000000000000000000000000000000000000000000008,
000000000000000000000000000000000000000000000000,
#GOGOSTART
100000000000100000100000100000000000100000100000,
100000000000000000000000200000000000200000000000,
100000000000100000100000100000000000100000100000,
100000000000000000000000200000000000200000000000,
100000000000100000100000100000000000100000100000,
100000000000000000000000500000000000000000000000,
000000000008000000000000500000000000000000000000,
000008000000000000100000100000000000100000000000,
#GOGOEND
300000000000000000000000000000000000000000000000,
#END
#START P2
000000000000000000000000000000000000000000000000,
700000000000000000000000000000000000000000000000,
000000000000000000000000800000000000000000000000,
00001110,
00002220,
00001110,
00000120,
300000000300000000300000000000000000000000000000,
400000000400000000400000000000000000000000000000,
300000000300000000300000000000000000000000000000,
300000000300000000300000000000300000000000000000,
500000000000000000000000000000000000000000000000,
000000000000000000000008000000000000000000000000,
600000000000000000000000000000000000000000000000,
000000000000000000000008000000000000000000000000,
100000000000100000100000000000000000000000000000,
200000000000200000200000000000000000000000000000,
100000000000100000100000000000000000000000000000,
200000000000200000200000000000000000000000000000,
100000000000100000100000000000000000000000000000,
200000000000200000200000000000000000000000000000,
100000000000100000000000200000000000000000000000,
100000000000100000000000200000000000000000000000,
100000000000100000000000100000000000100000000000,
100000000000000000000000100000000000000000000000,
100000000000100000000000100000000000100000000000,
100000000000000000000000200000000000000000000000,
100000000000100000000000100000000000100000000000,
100000000000100000000000100000000000100000000000,
500000000000000000000000000000000000000000000008,
000000000000000000000000000000000000000000000000,
#GOGOSTART
100000000000100000100000100000000000100000000000,
100000000000000000000000200000000000200000000000,
100000000000100000100000100000000000100000000000,
100000000000000000000000200000000000200000000000,
100000000000100000100000100000000000100000000000,
100000000000000000000000500000000000000000000000,
000000000008000000000000500000000000000000000000,
000000000008000000000000000000000000000000000000,
#GOGOEND
900000000000000000000000000000000000000000000000,
000000000000800000000000000000000000000000000000,
900000000000000000000000000000000000000000000000,
000000000000800000000000000000000000000000000000,
100000000000100000100000000000000000000000000000,
200000000000200000200000000000000000000000000000,
100000000000100000100000000000000000000000000000,
200000000000200000200000000000000000000000000000,
100000000000100000100000000000000000000000000000,
200000000000200000200000000000000000000000000000,
100000000000100000000000200000000000000000000000,
100000000000100000000000200000000000000000000000,
100000000000100000000000100000000000100000000000,
100000000000000000000000100000000000000000000000,
100000000000100000000000100000000000100000000000,
100000000000000000000000200000000000000000000000,
100000000000100000000000100000000000100000000000,
100000000000100000000000100000000000100000000000,
500000000000000000000000000000000000000000000008,
000000000000000000000000000000000000000000000000,
#GOGOSTART
100000000000100000100000100000000000100000100000,
100000000000000000000000200000000000200000000000,
100000000000100000100000100000000000100000100000,
100000000000000000000000200000000000200000000000,
100000000000100000100000100000000000100000100000,
100000000000000000000000500000000000000000000000,
000000000008000000000000500000000000000000000000,
000008000000000000100000100000000000100000000000,
#GOGOEND
300000000000000000000000000000000000000000000000,
#END
STYLE:Single
BALLOON:12,10,10
SCOREINIT:970
SCOREDIFF:360
#START
000000000000000000000000000000000000000000000000,
700000000000000000000000000000000000000000000000,
000000000000000000000000800000000000000000000000,
300000000300000000300000000000000000000000000000,
400000000400000000400000000000000000000000000000,
300000000300000000300000000000000000000000000000,
400000000400000000400000000000100000200000000000,
000000000000000000000000100000100000100000100000,
000000000000000000000000200000200000200000000000,
000000000000000000000000100000100000100000100000,
000000000000000000000000000000300000000000000000,
500000000000000000000000000000000000000000000000,
000000000000000000000008000000000000000000000000,
600000000000000000000000000000000000000000000000,
000000000000000000000008000000000000000000000000,
100000000000100000100000000000000000000000000000,
200000000000200000200000000000000000000000000000,
100000000000100000100000000000000000000000000000,
200000000000200000200000000000000000000000000000,
100000000000100000100000000000000000000000000000,
200000000000200000200000000000000000000000000000,
100000000000100000000000200000000000000000000000,
100000000000100000000000200000000000000000000000,
100000000000100000000000100000000000100000000000,
100000000000000000000000100000000000000000000000,
100000000000100000000000100000000000100000000000,
100000000000000000000000200000000000000000000000,
100000000000100000000000100000000000100000000000,
100000000000100000000000100000000000100000000000,
500000000000000000000000000000000000000000000008,
000000000000000000000000000000000000000000000000,
#GOGOSTART
100000000000100000100000100000000000100000000000,
100000000000000000000000200000000000200000000000,
100000000000100000100000100000000000100000000000,
100000000000000000000000200000000000200000000000,
100000000000100000100000100000000000100000000000,
100000000000000000000000500000000000000000000000,
000000000008000000000000500000000000000000000000,
000000000008000000000000000000000000000000000000,
#GOGOEND
900000000000000000000000000000000000000000000000,
000000000000800000000000000000000000000000000000,
900000000000000000000000000000000000000000000000,
000000000000800000000000000000000000000000000000,
100000000000100000100000000000000000000000000000,
200000000000200000200000000000000000000000000000,
100000000000100000100000000000000000000000000000,
200000000000200000200000000000000000000000000000,
100000000000100000100000000000000000000000000000,
200000000000200000200000000000000000000000000000,
100000000000100000000000200000000000000000000000,
100000000000100000000000200000000000000000000000,
100000000000100000000000100000000000100000000000,
100000000000000000000000100000000000000000000000,
100000000000100000000000100000000000100000000000,
100000000000000000000000200000000000000000000000,
100000000000100000000000100000000000100000000000,
100000000000100000000000100000000000100000000000,
500000000000000000000000000000000000000000000008,
000000000000000000000000000000000000000000000000,
#GOGOSTART
100000000000100000100000100000000000100000100000,
100000000000000000000000200000000000200000000000,
100000000000100000100000100000000000100000100000,
100000000000000000000000200000000000200000000000,
100000000000100000100000100000000000100000100000,
100000000000000000000000500000000000000000000000,
000000000008000000000000500000000000000000000000,
000008000000000000100000100000000000100000000000,
#GOGOEND
300000000000000000000000000000000000000000000000,
#END
COURSE:Easy
LEVEL:4
STYLE:Double
BALLOON:7,5,5
SCOREINIT:830
SCOREDIFF:368
#START P1
000000000000000000000000000000000000000000000000,
700000000000000000000000000000000000000000000000,
000000000000000000000000800000000000000000000000,
300000000300000000300000000000000000000000000000,
400000000400000000400000000000000000000000000000,
300000000300000000300000000000000000000000000000,
400000000400000000400000000000000000000000000000,
000000000000000000000000100000100000100000000000,
000000000000000000000000200000200000200000000000,
000000000000000000000000100000100000100000000000,
000000000000000000000000000000300000000000000000,
500000000000000000000000000000000000000000000000,
000000000000000000000008000000000000000000000000,
600000000000000000000000000000000000000000000000,
000000000000000000000008000000000000000000000000,
100000000000100000000000000000000000000000000000,
200000000000200000000000000000000000000000000000,
100000000000100000000000000000000000000000000000,
200000000000200000000000000000000000000000000000,
100000000000100000000000000000000000000000000000,
200000000000200000000000000000000000000000000000,
100000000000000000000000200000000000000000000000,
100000000000000000000000200000000000000000000000,
100000000000100000000000100000000000000000000000,
100000000000000000000000100000000000000000000000,
100000000000100000000000100000000000000000000000,
100000000000000000000000200000000000000000000000,
100000000000100000000000100000000000000000000000,
100000000000000000000000100000000000000000000000,
500000000000000000000000000000000000000000000008,
000000000000000000000000000000000000000000000000,
#GOGOSTART
100000000000100000000000100000000000100000000000,
100000000000000000000000200000000000000000000000,
100000000000100000000000100000000000100000000000,
100000000000000000000000200000000000000000000000,
100000000000100000000000100000000000100000000000,
100000000000000000000000500000000000000000000000,
000000000008000000000000500000000000000000000000,
000000000008000000000000000000000000000000000000,
#GOGOEND
900000000000000000000000000000000000000000000000,
000000000000800000000000000000000000000000000000,
900000000000000000000000000000000000000000000000,
000000000000800000000000000000000000000000000000,
100000000000100000000000000000000000000000000000,
200000000000200000000000000000000000000000000000,
100000000000100000000000000000000000000000000000,
200000000000200000000000000000000000000000000000,
100000000000100000000000000000000000000000000000,
200000000000200000000000000000000000000000000000,
100000000000000000000000200000000000000000000000,
100000000000000000000000200000000000000000000000,
100000000000100000000000100000000000000000000000,
100000000000000000000000100000000000000000000000,
100000000000100000000000100000000000000000000000,
100000000000000000000000200000000000000000000000,
100000000000100000000000100000000000000000000000,
100000000000000000000000100000000000000000000000,
500000000000000000000000000000000000000000000008,
000000000000000000000000000000000000000000000000,
#GOGOSTART
100000000000100000000000100000000000100000000000,
100000000000000000000000200000000000000000000000,
100000000000100000000000100000000000100000000000,
100000000000000000000000200000000000000000000000,
100000000000100000000000100000000000100000000000,
100000000000000000000000500000000000000000000000,
000000000008000000000000500000000000000000000000,
000008000000000000000000300000000000300000000000,
#GOGOEND
300000000000000000000000000000000000000000000000,
#END
#START P2
000000000000000000000000000000000000000000000000,
700000000000000000000000000000000000000000000000,
000000000000000000000000800000000000000000000000,
000000000000000000000000100000100000100000000000,
000000000000000000000000200000200000200000000000,
000000000000000000000000100000100000100000000000,
000000000000000000000000000000000000000000000000,
300000000300000000300000000000000000000000000000,
400000000400000000400000000000000000000000000000,
300000000300000000300000000000000000000000000000,
400000000400000000400000000000300000000000000000,
500000000000000000000000000000000000000000000000,
000000000000000000000008000000000000000000000000,
600000000000000000000000000000000000000000000000,
000000000000000000000008000000000000000000000000,
100000000000100000000000000000000000000000000000,
200000000000200000000000000000000000000000000000,
100000000000100000000000000000000000000000000000,
200000000000200000000000000000000000000000000000,
100000000000100000000000000000000000000000000000,
200000000000200000000000000000000000000000000000,
100000000000000000000000200000000000000000000000,
100000000000000000000000200000000000000000000000,
100000000000100000000000100000000000000000000000,
100000000000000000000000100000000000000000000000,
100000000000100000000000100000000000000000000000,
100000000000000000000000200000000000000000000000,
100000000000100000000000100000000000000000000000,
100000000000000000000000100000000000000000000000,
500000000000000000000000000000000000000000000008,
000000000000000000000000000000000000000000000000,
#GOGOSTART
100000000000100000000000100000000000100000000000,
100000000000000000000000200000000000000000000000,
100000000000100000000000100000000000100000000000,
100000000000000000000000200000000000000000000000,
100000000000100000000000100000000000100000000000,
100000000000000000000000500000000000000000000000,
000000000008000000000000500000000000000000000000,
000000000008000000000000000000000000000000000000,
#GOGOEND
900000000000000000000000000000000000000000000000,
000000000000800000000000000000000000000000000000,
900000000000000000000000000000000000000000000000,
000000000000800000000000000000000000000000000000,
100000000000100000000000000000000000000000000000,
200000000000200000000000000000000000000000000000,
100000000000100000000000000000000000000000000000,
200000000000200000000000000000000000000000000000,
100000000000100000000000000000000000000000000000,
200000000000200000000000000000000000000000000000,
100000000000000000000000200000000000000000000000,
100000000000000000000000200000000000000000000000,
100000000000100000000000100000000000000000000000,
100000000000000000000000100000000000000000000000,
100000000000100000000000100000000000000000000000,
100000000000000000000000200000000000000000000000,
100000000000100000000000100000000000000000000000,
100000000000000000000000100000000000000000000000,
500000000000000000000000000000000000000000000008,
000000000000000000000000000000000000000000000000,
#GOGOSTART
100000000000100000000000100000000000100000000000,
100000000000000000000000200000000000000000000000,
100000000000100000000000100000000000100000000000,
100000000000000000000000200000000000000000000000,
100000000000100000000000100000000000100000000000,
100000000000000000000000500000000000000000000000,
000000000008000000000000500000000000000000000000,
000008000000000000000000300000000000300000000000,
#GOGOEND
300000000000000000000000000000000000000000000000,
#END