forked from ESE/ESE
300 lines
12 KiB
Plaintext
300 lines
12 KiB
Plaintext
//TJADB Project
|
|
TITLE:Bakuryuu Sentai Abaranger
|
|
TITLEJA:爆竜戦隊アバレンジャー
|
|
SUBTITLE:--Takafumi Iwasaki feat. Masaaki Endoh/Bakuryuu Sentai Abaranger
|
|
BPM:163
|
|
WAVE:Bakuryuu Sentai Abaranger.ogg
|
|
OFFSET:-5.926
|
|
DEMOSTART:57.408
|
|
|
|
COURSE:Oni
|
|
LEVEL:6
|
|
BALLOON:15,8
|
|
|
|
|
|
#START
|
|
|
|
|
|
,
|
|
,
|
|
#BPMCHANGE 164.5
|
|
100000000100000000200000100000000100000000200000,
|
|
#BPMCHANGE 162.7
|
|
100000000000100000200000000000000000100000000000,
|
|
#BPMCHANGE 161.5
|
|
100000000000100000000000000000300000000000300000,
|
|
#BPMCHANGE 162
|
|
000000000000000000000000000000000000000000000000,
|
|
#BPMCHANGE 164
|
|
100000000100000000200000100000000100000000200000,
|
|
100000000000100000100000000000100000000000700000,
|
|
#BPMCHANGE 163
|
|
,
|
|
#BPMCHANGE 162.75
|
|
800000000000000000000000300000300000000000000000,
|
|
#BPMCHANGE 163
|
|
000000000000000000100000100000100000200000200000,
|
|
100000100000200000100100100000100000200200200000,
|
|
100000100100200000100100100000100000200000200000,
|
|
000000000000000000000000000000000000000000000000,
|
|
100000100100100000200200200000100100200000100100,
|
|
200000200000100000200000000000100000000000100000,
|
|
200000100000000000000000000000000000000000000000,
|
|
000000200000000000200000000000200200200000200000,
|
|
100000000000100000100000100000100000200000200000,
|
|
100000100000200000100100100000100000200200200000,
|
|
100000100100200000100100100000200000200000300000,
|
|
000000000000000000000000000000000000000000000000,
|
|
000000000000100000100100100000200200200000100100,
|
|
200000100100200000200000000000100000200000000000,
|
|
100000000000100000100000000000300000000000300000,
|
|
000000000000000000000000100000000000100000000000,
|
|
100000100000000000000000000000100100100000100000,
|
|
000000200200200000200000000000000000100000100000,
|
|
200000000000100000000000100000100000000000100000,
|
|
000000200000000000000000200000000000100000100000,
|
|
100100200000100000100100200000100000100100200000,
|
|
100100200000200000100000000000000000000000000000,
|
|
100000100100100000100000100100100100100000500000,
|
|
000000000000000000000000000000000000000000000008,
|
|
000000000000000000000000000000000000400000000000,
|
|
100000000100000000100000100000200200200000200000,
|
|
100000000100000000100000100000200200200000200000,
|
|
100000000000000000100000100000000000000000000000,
|
|
500000000000000000000000000000000008000000000000,
|
|
100000000100000000100000100000200200200000200000,
|
|
100000000100000000100000100000200200200000200000,
|
|
100000000000100000000000100000000000100000000000,
|
|
100000100000000000100000000000200200200200200000,
|
|
100000000100000000200000100000000100000000200000,
|
|
100000000000100000200000000000000000100000000000,
|
|
100000000000100000000000000000300000000000300000,
|
|
000000000000000000000000000000000000000000000000,
|
|
100000000100000000200000100000000100000000200000,
|
|
100000000000100000700000000000000000000000000000,
|
|
800000000000000000000000100000100000000000100000,
|
|
500000000000000000000000000000000000000000000008,
|
|
000000000000000000000000000000200200200200200000,
|
|
100000100000100000000000100000000000100000100000,
|
|
000000000000000000100000100000100000100000500000,
|
|
000000000000000000000000000000000008000000000000,
|
|
000000000000000000100000100000100000100000600000,
|
|
000000000000000000000000000000000008000000000000,
|
|
|
|
|
|
#END
|
|
|
|
|
|
COURSE:Hard
|
|
LEVEL:3
|
|
BALLOON:15,8
|
|
|
|
|
|
#START
|
|
|
|
|
|
000000000000000000000000000000000000000000000000,
|
|
000000000000000000000000000000000000000000000000,
|
|
300000000000000000000000300000000000000000000000,
|
|
300000000000000000000000000000000000100000000000,
|
|
100000000000100000000000000000300000000000300000,
|
|
000000000000000000000000000000000000000000000000,
|
|
100000000000100000000000100000000000100000000000,
|
|
100000000000100000100000000000100000000000700000,
|
|
,
|
|
00803300,
|
|
100000000000100000000000100000100000100000000000,
|
|
100000000000100000100000100000000000200000000000,
|
|
100000000000100000100000000000100000100000100000,
|
|
000000000000000000000000000000000000000000000000,
|
|
100000000000200000000000100000000000200000000000,
|
|
100000100000100000100000000000200000000000000000,
|
|
300000000000000000000000000000000000000000000000,
|
|
000000200000000000200000000000200000000000000000,
|
|
100000000000100000000000100000100000100000000000,
|
|
100000000000100000100000100000000000200000000000,
|
|
100000000000100000100000000000100000100000300000,
|
|
000000000000000000000000000000000000000000000000,
|
|
000000000000200000000000100000000000200000000000,
|
|
100000100000100000100000000000000000200000000000,
|
|
100000000000100000100000000000300000000000300000,
|
|
000000000000000000000000000000000000000000000000,
|
|
100000100000000000000000000000100000100000100000,
|
|
000000200000000000200000000000000000100000100000,
|
|
100000000000200000000000100000100000000000100000,
|
|
000000200000000000000000200000000000100000200000,
|
|
100000200000000000100000000000100000200000100000,
|
|
200000100000000000100000000000000000000000000000,
|
|
100000200000100000000000100000200000100000500000,
|
|
000000000000000000000000000000000000000000800000,
|
|
000000000000000000000000000000000000400000000000,
|
|
300000000100000000100000100000000000200000000000,
|
|
300000000100000000100000100000000000200000000000,
|
|
100000000000000000100000100000000000000000000000,
|
|
500000000000000000000000000000000800000000000000,
|
|
300000000100000000100000100000000000200000000000,
|
|
300000000100000000100000100000000000200000000000,
|
|
100000000000100000000000100000000000100000000000,
|
|
100000100000000000100000000000000000000000000000,
|
|
300000000100000000100000100000000100000000100000,
|
|
100000000000100000100000000000000000100000000000,
|
|
100000000000100000000000000000300000000000300000,
|
|
000000000000000000000000000000000000000000000000,
|
|
300000000100000000100000100000000100000000100000,
|
|
100000000000100000700000000000000000000000000000,
|
|
000000000000800000000000100000100000000000100000,
|
|
500000000000000000000000000000000000000000000008,
|
|
000000000000000000000000000000000000000000000000,
|
|
100000100000100000000000100000000000200000200000,
|
|
000000000000000000100000100000100000100000500000,
|
|
000000000000000000000000000000000008000000000000,
|
|
000000000000000000100000100000100000100000600000,
|
|
000000000000000000000000000000000008000000000000,
|
|
|
|
|
|
#END
|
|
|
|
|
|
COURSE:Normal
|
|
LEVEL:2
|
|
BALLOON:8
|
|
SCOREINIT:1580
|
|
SCOREDIFF:640
|
|
|
|
|
|
#START
|
|
|
|
|
|
000000000000000000000000000000000000000000000000,
|
|
000000000000000000000000000000000000000000000000,
|
|
300000000000000000000000300000000000000000000000,
|
|
100000000000100000000000000000000000100000000000,
|
|
100000000000000000000000000000300000000000300000,
|
|
000000000000000000000000000000000000000000000000,
|
|
100000000000000000000000100000000000000000000000,
|
|
100000000000100000000000100000000000100000000000,
|
|
500000000000000000000000000000000000000000800000,
|
|
000000000000000000000000000000000000000000000000,
|
|
100000000000000000000000100000000000000000000000,
|
|
100000100000000000100000000000000000000000000000,
|
|
100000000000000000000000100000000000000000000000,
|
|
100000000000000000000000000000000000000000000000,
|
|
100000000000000000000000100000000000000000000000,
|
|
100000000000100000100000000000000000000000000000,
|
|
100000000000000000000000000000000000000000000000,
|
|
000000000000000000000000000000000000000000000000,
|
|
100000000000000000000000100000000000000000000000,
|
|
100000100000000000200000000000000000000000000000,
|
|
100000000000000000000000100000000000000000000000,
|
|
300000000000000000000000000000000000000000000000,
|
|
100000000000000000000000100000000000000000000000,
|
|
100000000000100000200000000000000000000000000000,
|
|
100000000000100000000000000000100000000000100000,
|
|
000000000000000000000000000000000000000000000000,
|
|
100000100000000000000000000000000000100000100000,
|
|
000000000000000000000000000000000000000000000000,
|
|
100000100000000000000000000000000000100000100000,
|
|
000000000000000000000000000000000000000000000000,
|
|
100000000000100000000000000000000000100000000000,
|
|
100000000000000000000000100000000000000000000000,
|
|
100000000000100000000000100000000000100000000000,
|
|
500000000000000000000000000000000000000000800000,
|
|
000000000000000000000000000000000000000000000000,
|
|
300000000000000000100000100000000000000000000000,
|
|
300000000000000000100000100000000000000000000000,
|
|
300000000000000000100000100000000000000000000000,
|
|
500000000000000000000000000000800000000000000000,
|
|
400000000000000000100000100000000000000000000000,
|
|
400000000000000000100000100000000000000000000000,
|
|
100000000000100000000000100000000000100000000000,
|
|
100000000000000000300000000000000000000000000000,
|
|
300000000000000000000000300000000000000000000000,
|
|
300000000000000000000000000000000000100000000000,
|
|
100000000000100000000000000000300000000000300000,
|
|
000000000000000000000000000000000000000000000000,
|
|
300000000000000000000000300000000000000000000000,
|
|
100000000000000000700000000000000000000000000000,
|
|
000000000000800000000000100000000000100000000000,
|
|
500000000000000000000000000000000000000000000008,
|
|
000000000000000000000000000000000000000000000000,
|
|
100000100000100000000000100000000000100000000000,
|
|
000000000000000000100000100000100000000000500000,
|
|
000000000000000000000000000000000000000008000000,
|
|
000000000000000000100000100000100000000000600000,
|
|
000000000000000000000000000000000000000008000000,
|
|
|
|
|
|
#END
|
|
|
|
|
|
COURSE:Easy
|
|
LEVEL:2
|
|
SCOREINIT:1530
|
|
SCOREDIFF:760
|
|
|
|
|
|
#START
|
|
|
|
|
|
000000000000000000000000000000000000000000000000,
|
|
000000000000000000000000000000000000000000000000,
|
|
100000000000000000000000100000000000000000000000,
|
|
100000000000000000000000000000000000000000000000,
|
|
100000000000000000000000000000100000000000100000,
|
|
000000000000000000000000000000000000000000000000,
|
|
100000000000000000000000100000000000000000000000,
|
|
100000000000000000000000100000000000000000000000,
|
|
500000000000000000000000000000800000000000000000,
|
|
000000000000000000000000000000000000000000000000,
|
|
100000000000000000000000100000000000000000000000,
|
|
100000000000000000000000100000000000000000000000,
|
|
100000000000000000000000100000000000000000000000,
|
|
100000000000000000000000000000000000000000000000,
|
|
100000000000100000000000100000000000000000000000,
|
|
100000000000100000000000100000000000000000000000,
|
|
300000000000000000000000000000000000000000000000,
|
|
000000000000000000000000000000000000000000000000,
|
|
100000000000000000000000100000000000000000000000,
|
|
100000000000000000000000100000000000000000000000,
|
|
100000000000000000000000100000000000000000000000,
|
|
300000000000000000000000000000000000000000000000,
|
|
100000000000100000000000100000000000000000000000,
|
|
100000000000100000000000100000000000000000000000,
|
|
100000000000000000000000100000000000000000000000,
|
|
300000000000000000000000000000000000000000000000,
|
|
100000000000000000000000000000000000000000000000,
|
|
100000000000000000000000000000000000000000000000,
|
|
100000000000000000000000000000000000000000000000,
|
|
100000000000000000000000000000000000000000000000,
|
|
100000000000000000000000100000000000000000000000,
|
|
100000000000000000000000100000000000000000000000,
|
|
100000000000100000000000100000000000000000000000,
|
|
500000000000000000000000000000000000000000000008,
|
|
000000000000000000000000000000000000000000000000,
|
|
100000000000100000000000100000000000000000000000,
|
|
100000000000100000000000100000000000000000000000,
|
|
100000000000100000000000100000000000000000000000,
|
|
500000000000000000000000000008000000000000000000,
|
|
100000000000100000000000100000000000000000000000,
|
|
100000000000100000000000100000000000000000000000,
|
|
100000000000100000000000100000000000000000000000,
|
|
100000000000100000000000100000000000000000000000,
|
|
300000000000000000000000300000000000000000000000,
|
|
300000000000000000000000000000000000000000000000,
|
|
100000000000000000000000000000300000000000300000,
|
|
000000000000000000000000000000000000000000000000,
|
|
100000000000000000000000100000000000000000000000,
|
|
100000000000000000500000000000000008000000000000,
|
|
000000000000000000000000100000000000000000000000,
|
|
500000000000000000000000000000000000000000000008,
|
|
000000000000000000000000000000000000000000000000,
|
|
100000000000100000000000100000000000100000000000,
|
|
000000000000000000000000100000000000000000500000,
|
|
000000000000000000000000000000000008000000000000,
|
|
000000000000000000000000300000000000000000600000,
|
|
000000000000000000000000000000000008000000000000,
|
|
|
|
|
|
#END
|
|
|