forked from ESE/ESE
208 lines
7.2 KiB
Plaintext
208 lines
7.2 KiB
Plaintext
//TJADB Project
|
|
TITLE:Break the Chain
|
|
TITLEJA:Break the Chain
|
|
SUBTITLE:--Tourbillion feat. Naoto Fuuga/Kamen Rider Kiva
|
|
SUBTITLEJA:「仮面ライダーキバ」より
|
|
BPM:110
|
|
WAVE:Break the Chain.ogg
|
|
OFFSET:-2.285
|
|
DEMOSTART:41.541
|
|
|
|
COURSE:Oni
|
|
LEVEL:6
|
|
SCOREINIT:1150
|
|
SCOREDIFF:290
|
|
|
|
|
|
#START
|
|
|
|
|
|
100000000000000000000000000000000000000000000000,
|
|
100000000000000000000000000000000000000000000000,
|
|
100000000000000000000000000000100000100100000000,
|
|
100000100000100100000100000000100000100100000000,
|
|
100000100000100100000100000200200200200200200000,
|
|
300000300000100100000100000000100000200000100000,
|
|
100000100000100100000100000000100000200000000000,
|
|
100000100000100100000100000000100000200000100000,
|
|
100000100000100100000100000000100000200200200200,
|
|
100000100000200000000100000000100000200000000000,
|
|
100000100000200000200200000000100000200000000000,
|
|
100000100000100100000100000000200200200200000000,
|
|
100000100000100100000100000000200200200200200000,
|
|
300000000300000000300000000000100000200000000000,
|
|
300000000300000000300000000000100000200000000000,
|
|
300000000300000000300000000000100000200000000000,
|
|
100000100200000000100000100000100200000200200000,
|
|
300000000000300000000000200200200200200200000000,
|
|
|
|
#GOGOSTART
|
|
100000100000200000100100000000100000200000100000,
|
|
100000100000200000100100000000100000200000100000,
|
|
100000100000200000100100000000100000200000000000,
|
|
100100000100200000000000200200000200100000200200,
|
|
100000100000200000100100000000100000200000100000,
|
|
100000100000200000100100000000100000200000100000,
|
|
100000100000200000100100000000100000200000000000,
|
|
100100000100200000000000100100000100200000000000,
|
|
200200000200100000000000200200000200100000000000,
|
|
100100000100200000000000100100000100200000000000,
|
|
|
|
#GOGOEND
|
|
300000100000100100000100000000100000100100000000,
|
|
100000100000200000200000200200100200200100200000,
|
|
200200200200100100200000200200200200100100200000,
|
|
200000200000100000100000200000200000100000100000,
|
|
300000000000000000000000000000000000000000000000,
|
|
|
|
|
|
#END
|
|
|
|
|
|
COURSE:Hard
|
|
LEVEL:4
|
|
SCOREINIT:1110
|
|
SCOREDIFF:310
|
|
|
|
|
|
#START
|
|
|
|
|
|
100000000000000000000000000000000000000000000000,
|
|
100000000000000000000000000000000000000000000000,
|
|
100000000000000000000000000000100000100100000000,
|
|
100000000000100100000100000000000000100100000000,
|
|
100000000000100100000100000000200000200200000000,
|
|
300000300000100100000100000000000000200000000000,
|
|
100000100000100100000100000000000000200000000000,
|
|
100000100000100100000100000000000000200000000000,
|
|
100000100000100100000100000000000000000000000000,
|
|
100000100000200000000100000000100000200000000000,
|
|
100000100000200000100100000000000000200000000000,
|
|
100000100000100100000100000000000000200000000000,
|
|
100000100000100100000100000000000000000000000000,
|
|
300000000300000000300000000000100000200000000000,
|
|
300000000300000000300000000000100000200000000000,
|
|
300000000300000000300000000000100000200000000000,
|
|
100000000000200000000000100000000000200200000000,
|
|
300000000000300000000000000000000000000000000000,
|
|
#GOGOSTART
|
|
100000100000200000000100000000100000200000000000,
|
|
100000100000200000000100000000100000200000000000,
|
|
100000100000200000000100000000100000200000000000,
|
|
100100000100200000000000100100000100200000000000,
|
|
100000100000200000000100000000100000200000000000,
|
|
100000100000200000000100000000100000200000000000,
|
|
500000000000000000000000000000000800000000000000,
|
|
100100000100200000000000100100000100200000000000,
|
|
100100000200200000000000100100000200200000000000,
|
|
100100000100200000000000100100000100200000000000,
|
|
#GOGOEND
|
|
300000000000100100000100000000100000100100000000,
|
|
100000100000100000100000100100100000100100100000,
|
|
100000100000100100000100000000000000200000000000,
|
|
100000100000100100000000100000100000200000200000,
|
|
300000000000000000000000000000000000000000000000,
|
|
|
|
|
|
#END
|
|
|
|
|
|
COURSE:Normal
|
|
LEVEL:3
|
|
SCOREINIT:1210
|
|
SCOREDIFF:490
|
|
|
|
|
|
#START
|
|
|
|
|
|
100000000000000000000000000000000000000000000000,
|
|
100000000000000000000000000000000000000000000000,
|
|
100000000000000000000000000000000000300000000000,
|
|
100000000000100000000000000000000000100000000000,
|
|
100000000000100000000000000000000000000000000000,
|
|
100000000000100000000000000000000000200000000000,
|
|
100000000000100000000000000000000000200000000000,
|
|
100000000000100000000000000000000000200000000000,
|
|
100000000000100000000000000000000000200000000000,
|
|
100000000000200000000000000000000000200000000000,
|
|
100000000000200000000000000000000000200000000000,
|
|
100000100000100000000000000000000000200000000000,
|
|
100000100000100000000000000000000000000000000000,
|
|
300000000300000000300000000000000000000000000000,
|
|
300000000300000000300000000000000000000000000000,
|
|
300000000300000000300000000000000000000000000000,
|
|
100000000000000000000000100000000000000000000000,
|
|
300000000000300000000000000000000000000000000000,
|
|
#GOGOSTART
|
|
100000100000100000000000000000000000200000000000,
|
|
100000100000100000000000000000000000200000000000,
|
|
100000100000100000000000000000000000000000000000,
|
|
300000000000400000000000300000000000400000000000,
|
|
100000100000100000000000000000000000200000000000,
|
|
100000100000100000000000000000000000200000000000,
|
|
100000100000100000000000100000100000100000000000,
|
|
100000000000200000000000100000000000200000000000,
|
|
100000000000200000000000100000000000200000000000,
|
|
300000000000400000000000300000000000400000000000,
|
|
#GOGOEND
|
|
300000000000000000000000000000000000000000000000,
|
|
100000000000100000000000100000100000100000000000,
|
|
100000100000100000000000000000000000200000000000,
|
|
100000100000100000000000100000100000100000000000,
|
|
300000000000000000000000000000000000000000000000,
|
|
|
|
|
|
#END
|
|
|
|
|
|
COURSE:Easy
|
|
LEVEL:3
|
|
SCOREINIT:1280
|
|
SCOREDIFF:710
|
|
|
|
|
|
#START
|
|
|
|
|
|
100000000000000000000000000000000000000000000000,
|
|
100000000000000000000000000000000000000000000000,
|
|
100000000000000000000000000000000000300000000000,
|
|
100000000000100000000000000000000000100000000000,
|
|
100000000000100000000000000000000000000000000000,
|
|
300000000000300000000000000000000000000000000000,
|
|
100000000000100000000000000000000000000000000000,
|
|
300000000000300000000000000000000000000000000000,
|
|
100000000000100000000000000000000000000000000000,
|
|
100000000000000000000000200000000000000000000000,
|
|
100000000000000000000000200000000000000000000000,
|
|
100000000000100000000000000000000000000000000000,
|
|
100000000000100000000000000000000000000000000000,
|
|
300000000000000000300000000000000000000000000000,
|
|
300000000000000000300000000000000000000000000000,
|
|
300000000000000000300000000000000000000000000000,
|
|
100000000000000000000000100000000000000000000000,
|
|
300000000000300000000000000000000000000000000000,
|
|
#GOGOSTART
|
|
100000000000100000000000000000000000100000000000,
|
|
100000000000100000000000000000000000100000000000,
|
|
100000000000100000000000000000000000000000000000,
|
|
100000000000000000000000100000000000000000000000,
|
|
100000000000100000000000000000000000100000000000,
|
|
100000000000100000000000000000000000100000000000,
|
|
200000000000200000000000000000000000000000000000,
|
|
100000000000000000000000100000000000000000000000,
|
|
200000000000000000000000200000000000000000000000,
|
|
100000000000000000000000100000000000000000000000,
|
|
#GOGOEND
|
|
300000000000000000000000000000000000000000000000,
|
|
100000000000100000000000100000100000100000000000,
|
|
100000100000100000000000100000000000100000000000,
|
|
100000100000100000000000100000000000100000000000,
|
|
300000000000000000000000000000000000000000000000,
|
|
|
|
|
|
#END
|
|
|