Files
2023-06-15 19:05:10 -05:00

328 lines
4.8 KiB
Plaintext

//TJADB Project
TITLE:Butter-Fly
TITLEJA:Butter-Fly
SUBTITLE:--Koji Wada/Digimon Adventure
SUBTITLEJA:「デジモンアドベンチャー」より
BPM:165
WAVE:Butter-Fly.ogg
OFFSET:-1.586
DEMOSTART:56.676
COURSE:Oni
LEVEL:7
BALLOON:4,4,4,6,6,4,4,4
SCOREINIT:730
SCOREDIFF:160
#START
22012201,
33030211,
22012201,
500000000000000000000000000000000000000008000000,
1000201210102000,
500000000008000000700000000000000008000000000000,
1000202210102000,
500000000008000000700000000000000008000000000000,
1000201210102000,
500000000008000000700000000000000008000000000000,
1000202210102000,
30030221,
11011112,
02012111,
01111012,
02022111,
10210111,
01110111,
5,
000000000000000000000000000008000000000000100000,
01111012,
0020202220201010,
01210112,
0022201120201020,
11010121,
01210121,
5,
000000000000000008000000000000200000200000200000,
1011101110100070,
000000000000000000000008000000200000200000200000,
1010201110102010,
0010222020111010,
1022102210010070,
000000000000000000000008000000000000200000200000,
1011103000111030,
0011103000111110,
500000000000000000000000000000000000000000000008,
0022202220200011,
#GOGOSTART
1000201000102011,
1000201110102010,
1011201000102220,
1011201110112010,
1000201000111030,
0011103000222010,
21212121,
2011201120222222,
1000201000102011,
1000201110102010,
1011201000102220,
1011201110112022,
1000201000112030,
0011203000222220,
2011201120112011,
2011201120222222,
#GOGOEND
1000201210102000,
500000000008000000700000000000000008000000000000,
1000202210102000,
500000000008000000700000000000000008000000000000,
1000201210102000,
500000000008000000700000000000000008000000000000,
3000222211101000,
30030060,
000000000000000000000000000000000000000008000000,
33330000,
#END
COURSE:Hard
LEVEL:5
BALLOON:3,3,3,8,8,3,3,3
SCOREINIT:560
SCOREDIFF:160
#START
22022202,
33030030,
22022202,
500000000000000000000000000000000000000008000000,
1000001110101000,
500000000008000000700000000000000000800000000000,
1000001110101000,
500000000008000000700000000000000000800000000000,
1000001110101000,
500000000008000000700000000000000000800000000000,
1000001110101000,
30030001,
11011012,
02000011,
01111012,
02000111,
10000111,
01110111,
5,
000000000000000000000000000008000000000000100000,
01111012,
02202201,
01110112,
02202211,
10000121,
01210121,
5,
000000000000000008000000000000200000200000200000,
10101107,
08,
11211121,
01011222,
1000100010010070,
00008011,
1011103000111030,
0011103000111000,
500000000000000000000000000000000000000008000000,
0020202220200010,//38
#GOGOSTART
10210120,
11210110,
1020201000222000,
11211121,
1000201000111030,
0011103000222000,
21212121,
2010201020202011,
11210120,
1010201000222000,
1020201000222000,
11211121,
1000201000111030,
0011103000222000,
21212121,
2010201020222011,//54
#GOGOEND
1000001110101000,
500000000008000000700000000000000000800000000000,
1000001110101000,
500000000008000000700000000000000000800000000000,
1000001110101000,
500000000008000000700000000000000000800000000000,
1000001110101000,
30030060,
000000000000000000000000000000000000000008000000,
33330000,
,
,
#END
COURSE:Normal
LEVEL:5
BALLOON:12,12,26
#START
22,
30030000,
22,
500000000000000000000000000000000008000000000000,
10001110,
20020000,
10001110,
20020000,
10001110,
20020000,
10001110,
30030000,
10001002,
02000001,
00001002,
02000010,
10000111,
01110010,
5,
000000000000000000000000000008000000000000000000,
10001002,
02000001,
00001002,
02000010,
10000111,
01110010,
5,
000000000000000008000000000000000000000000000000,
7,
08,
10101022,
,
7,
08,
30030003,
00030000,
600000000000000000000000000000000000000000000008,
,//38
#GOGOSTART
10010020,
10101110,
10010020,
1110,
10000003,
00030000,
1111,
11102220,
10010020,
10101110,
10010000,
20202220,
10000003,
00030000,
1111,
11111110,//54
#GOGOEND
9,
,
0900,
8,
10001110,
20020000,
10001110,
30030060,
000000000000000000000000000008000000000000000000,
30030000,
,
,
#END
COURSE:Easy
LEVEL:4
BALLOON:8,8,14
#START
11,
3,
11,
500000000000000000000000000008000000000000000000,
11,
20020000,
11,
20020000,
11,
20020000,
11,
30030000,
11,
1,
11,
1,
10000001,
00010010,
5,
000000000000000000000000000008000000000000000000,
11,
1,
11,
1,
10000001,
00010010,
5,
000000000000000008000000000000000000000000000000,
7,
08,
1011,
1,
7,
08,
30030003,
00030000,
600000000000000000000000000000000000000000000008,
,//38
#GOGOSTART
10010000,
1110,
10010000,
1110,
10000004,
00040000,
1111,
1110,
10010000,
1110,
10010000,
1110,
10000004,
00040000,
1111,
1111,//54
#GOGOEND
9,
,
0900,
8,
11,
20020000,
11,
30030060,
000000000000000000000000000008000000000000000000,
30030000,
,
,
#END